ML
     
  Уважаемый Гость!
Вы можете поддержать проект и зарегистрироваться у наших партнеров - онлайн-стратегия MyLands. При регистрации в игре Вы получите код, который сможете активировать после регистрации на pirat.ca и получить 1000 дублонов.

Ваш код:
b70663c760e7cd2521b8e123786cdd788200e3bd
 
     

Вангелия (Ванга) (12 серий из 12) (Сергей Борчуков) [2013, Биография, драма, HDTVRip]

Ответить на тему
 
Автор
Сообщение

Пост 12-Окт-2013 21:31

[Q] 

Пират

Вангелия (Ванга) (12 серий из 12) Год выпуска: 2013
Жанр: Биография, драма
Выпущено: Беларусь, Болгария, Россия, "Фаворит-фильм", студия "New Wave Production"
Продолжительность: 12 х ~ 00:45:00
Режиссер: Сергей Борчуков
В ролях: Елена Яковлева, Ирина Рахманова, Наталья Николаева (II), Даша Отрошко, Кристина Пакарина, Карина Андоленко, Таисия Вилкова, Евгений Князев, Анатолий Белый, Даниил Белых, Александра Платонова (II), Антон Макарский, Александр Андриенко, Екатерина Молоховская, Света Цуба, Вера Цуба, Макс Бирюков, Яна Еремеева, Карина Разумовская, Александр Новицкий, Игорь Ливанов, Владимир Щербаков, Андрей Франчук, Анна Соломянская, Валентин Терехов, Кристина Брыкова, Евгений Крылов
Описание: Знать будущее - это дар или проклятье? Не спешите отвечать прежде, чем услышите исповедь слепой провидицы Ванги – одной из самых известных предсказательниц ХХ века. Сериал позволит зрителю прожить вместе с Вангой ее удивительную жизнь, полную тайн. Провидица рано потеряла мать, не знала отцовской ласки, но пожертвовала собственным счастьем ради блага семьи. Тюрьма, отчуждение, слепота, всемирная слава… Об этом и о многом другом перед смертью Ванга рассказывает журналистке Алисе, которая должна замкнуть круг мистических событий, чрезвычайно значимых для Ванги. Но сумеет ли девушка понять свое истинное предназначение?
Качество: HDTVRip
Формат: AVI
Видео кодек: XviD
Аудио кодек: AC3
Видео: XviD, ~ 1600 Кбит/с, 720x400, 25,000 кадров/сек, 0.223 bit/pixel
Аудио: АС3, 2 ch, 192 Кбит/с, 48 kHz
Общее
Полное имя : E:\Раздачи\Vanga.2013.XviD.HDTVRip\Vanga.01seriya.2013.XviD.HDTVRip.avi
Формат : AVI
Формат/Информация : Audio Video Interleave
Размер файла : 671 Мбайт
Продолжительность : 51 м.
Общий поток : 1804 Кбит/сек
Программа кодирования : VirtualDubMod 1.5.10.3 | www.virtualdub-fr.org || (build 2550/release)
Библиотека кодирования : VirtualDubMod build 2550/release
Видео
Идентификатор : 0
Формат : MPEG-4 Visual
Профиль формата : Advanced [email protected]
Параметр BVOP формата : 1
Параметр QPel формата : Нет
Параметр GMC формата : Без точки перехода
Параметр матрицы формата : Default (H.263)
Идентификатор кодека : XVID
Идентификатор кодека/Подсказка : XviD
Продолжительность : 51 м.
Битрейт : 1602 Кбит/сек
Ширина : 720 пикселей
Высота : 400 пикселей
Соотношение сторон : 16:9
Частота кадров : 25,000 кадров/сек
Цветовое пространство : YUV
Субдискретизация насыщенности : 4:2:0
Битовая глубина : 8 бит
Тип развёртки : Прогрессивная
Метод сжатия : С потерями
Бит/(Пиксели*Кадры) : 0.223
Размер потока : 596 Мбайт (89%)
Библиотека кодирования : XviD 1.2.1 (UTC 2008-12-04)
Аудио
Идентификатор : 1
Формат : AC-3
Формат/Информация : Audio Coding 3
Расширение режима : CM (complete main)
Параметр Endianness формата : Big
Идентификатор кодека : 2000
Продолжительность : 51 м.
Вид битрейта : Постоянный
Битрейт : 192 Кбит/сек
Каналы : 2 канала
Расположение каналов : Front: L R
Частота : 48,0 КГц
Битовая глубина : 16 бит
Метод сжатия : С потерями
Размер потока : 71,4 Мбайт (11%)
Выравнивание : Разделение по промежуткам
Продолжительность промежутка : 40 мс. (1,00 видеокадр)
Время предзагрузки промежутка : 500 мс.
Download / Скачать

Хотите скачать бесплатно? Зарегистрируйтесь на сайте (ссылка на регистрацию). Pirat.ca - самый быстрый торрент трекер в рунете!

Как скачивать  ·   Что такое торрент  ·   Рейтинг и ограничения

Пост 12-Окт-2013 23:32 (спустя 2 часа 1 минута)

Топик был перенесен из форума Отечественные сериалы (Трюм) в форум Отечественные сериалы
kugesan
 
Показать сообщения:    
Ответить на тему

Текущее время: Сегодня 00:17

Часовой пояс: GMT + 4



Вы не можете начинать темы
Вы не можете отвечать на сообщения
Вы не можете редактировать свои сообщения
Вы не можете удалять свои сообщения
Вы не можете голосовать в опросах
Вы не можете прикреплять файлы к сообщениям
Вы не можете скачивать файлы

▼ Вниз