ML
     
  Уважаемый Гость!
Вы можете поддержать проект и зарегистрироваться у наших партнеров - онлайн-стратегия MyLands. При регистрации в игре Вы получите код, который сможете активировать после регистрации на pirat.ca и получить 1000 дублонов.

Ваш код:
0ea1bf889af42fca5f67d0a391efb3400850ad7c
 
     

72 метра [Телеверсия - 3 серии из 3] (Владимир Хотиненко) [2004, Боевик, триллер, драма, SatRip]

Ответить на тему
 
Автор
Сообщение

Пост 12-Окт-2013 21:31

[Q] 

Пират

72 метра [Телеверсия - 3 серии из 3] Год выпуска: 2004
Жанр: Боевик, триллер, драма
Продолжительность: 3 x ~ 00:48:06
Выпущено: Россия, Первый канал, Студия Тритэ
Режиссер: Владимир Хотиненко
В ролях: Сергей Маковецкий, Марат Башаров, Андрей Краско, Дмитрий Ульянов, Чулпан Хаматова, Станислав Никольский, Сергей Гармаш, Владислав Галкин, Игорь Ливанов, Артём Михалков, Сергей Ярмолюк, Александр Пашков, Алексей Зеленский, Амаду Мамадаков, Никита Емшанов, Олег Меншенин, Роман Меньшенин, Алексей Кабешев, Глеб Матвейчук, Валентина Светлова (II), Геннадий Назаров, Леонид Ниценко, Сергей Власов, Михаил Полицеймако, Светлана Коновалова, Николай Шатохин, Сергей Комарницкий, Игорь Бабенко, Игорь Ершов, Александр Доманов, Юрий Пимкин, Алексей Пусько, Геннадий Соловьёв, Борис Чернокульский, Анжела Веденеева, Михаил Шашков, Константин Мельников, Игорь Гневашев, Александр Аблязов
Описание: Рассказ «72 метра», повествующий о гибели подводной лодки, был написан Александром Покровским задолго до того, как произошла трагедия «Курска». Это не пророчество и не совпадение, а, к сожалению, логика вещей. Самые суперсовременные самолеты падали и будут время от времени падать. Самые надежные корабли и подводные лодки тонули и, увы, еще будут тонуть. Но речь не об этом… Бывает так, что в критической ситуации люди, считавшиеся слабыми, становятся сильными, а те, кто казался твёрдыми, как скала, смертельно слабеют. Но все вместе они — герои. Эта история не о том, что надежда умирает последней, а о том, что она не умирает никогда…
Качество: SatRip
Формат: AVI
Видео кодек: XviD
Аудио кодек: MP3
Видео: XviD, 1832 Кбит/с, 704x386, 25 fps 0.271 bit/pixel
Аудио: MP3, 2 ch, 192 Кбит/с 48 kHz
Общее
Полное имя : E:\Раздачи\72.metra.(3.serii.iz.3).2004.XviD.TVRip\72.metra.(1.serija.iz.3).2004.XviD.TVRip.avi
Формат : AVI
Формат/Информация : Audio Video Interleave
Размер файла : 749 Мбайт
Продолжительность : 51 м.
Общий поток : 2034 Кбит/сек
Библиотека кодирования : VirtualDub-MPEG2 build 24586/release
Видео
Идентификатор : 0
Формат : MPEG-4 Visual
Профиль формата : Advanced [email protected]
Параметр BVOP формата : 2
Параметр QPel формата : Нет
Параметр GMC формата : Без точки перехода
Параметр матрицы формата : Default (H.263)
Режим смешивания : Сжатый битовый поток
Идентификатор кодека : XVID
Идентификатор кодека/Подсказка : XviD
Продолжительность : 51 м.
Битрейт : 1832 Кбит/сек
Ширина : 704 пикселя
Высота : 384 пикселя
Соотношение сторон : 1,85:1
Частота кадров : 25,000 кадров/сек
Цветовое пространство : YUV
Субдискретизация насыщенности : 4:2:0
Битовая глубина : 8 бит
Тип развёртки : Прогрессивная
Метод сжатия : С потерями
Бит/(Пиксели*Кадры) : 0.271
Размер потока : 675 Мбайт (90%)
Библиотека кодирования : XviD 64
Аудио
Идентификатор : 1
Формат : MPEG Audio
Версия формата : Version 1
Профиль формата : Layer 3
Режим : Joint stereo
Расширение режима : MS Stereo
Идентификатор кодека : 55
Идентификатор кодека/Подсказка : MP3
Продолжительность : 51 м.
Вид битрейта : Постоянный
Битрейт : 192 Кбит/сек
Каналы : 2 канала
Частота : 48,0 КГц
Метод сжатия : С потерями
Размер потока : 70,8 Мбайт (9%)
Выравнивание : Разделение по промежуткам
Продолжительность промежутка : 40 мс. (1,00 видеокадр)
Время предзагрузки промежутка : 500 мс.
Download / Скачать

Хотите скачать бесплатно? Зарегистрируйтесь на сайте (ссылка на регистрацию). Pirat.ca - самый быстрый торрент трекер в рунете!

Как скачивать  ·   Что такое торрент  ·   Рейтинг и ограничения



Последний раз редактировалось: Пират (2013-10-12 23:59), всего редактировалось 2 раз(а)

-B1ack-

1884

Пост 12-Окт-2013 22:49 (спустя 1 час 18 минут)

[Q] 

Раздающему респект!

_________________
[Профиль]  [ЛС] 

Пират ®

1474

Пост 12-Окт-2013 23:58 (спустя 1 час 9 минут)

[Q] 

-B1ack-, и Вам спасибо anime15

_________________
Всё, что с нами происходит - результат наших прошлых поступков. Наше будущее зависит от того, что мы делаем сейчас...
[Профиль]  [ЛС] 

Пост 13-Окт-2013 00:17 (спустя 18 минут)

Топик был перенесен из форума Отечественные сериалы (Трюм) в форум Отечественные сериалы
kugesan
 

lexx

Корсар

129

Пост 13-Окт-2013 20:24 (спустя 20 часов)

[Q] 

обалденный фильмец пасибо
[Профиль]  [ЛС] 

viktor41

Шкипер

Пост 29-Окт-2013 12:51 (спустя 15 дней)

[Q] 

Пират, Спасибо вам ! Автору респект!!! Супер!
[Профиль]  [ЛС] 

Пират ®

1474

Пост 29-Окт-2013 14:54 (спустя 2 часа 3 минуты)

[Q] 

lexx, viktor41, и Вам спасибо за спасибо ay

_________________
Всё, что с нами происходит - результат наших прошлых поступков. Наше будущее зависит от того, что мы делаем сейчас...
[Профиль]  [ЛС] 

Sergi4

Гроза морей

Пост 04-Ноя-2013 22:14 (спустя 6 дней)

[Q] 

Спасибо!!! Раздающему респект!
[Профиль]  [ЛС] 
Показать сообщения:    
Ответить на тему

Текущее время: Сегодня 00:36

Часовой пояс: GMT + 4



Вы не можете начинать темы
Вы не можете отвечать на сообщения
Вы не можете редактировать свои сообщения
Вы не можете удалять свои сообщения
Вы не можете голосовать в опросах
Вы не можете прикреплять файлы к сообщениям
Вы не можете скачивать файлы

▼ Вниз