ML
     
  Уважаемый Гость!
Вы можете поддержать проект и зарегистрироваться у наших партнеров - онлайн-стратегия MyLands. При регистрации в игре Вы получите код, который сможете активировать после регистрации на pirat.ca и получить 1000 дублонов.

Ваш код:
2932e5898d0a27592397f70b82a5834d1e70ea19
 
     

Позывной "Стая" / Серии: 1-4 из 4 (Андрей Щербинин) [2013 г., боевик, SATRip]

Ответить на тему
 
Автор
Сообщение

Пост 14-Окт-2013 17:33

[Q] 

cergo

Гроза морей

-Позывной "Стая"Серии: 1-4 из 4-- Производство: Россия, Стори Фёрст Продакшн
Жанр: боевик
Год выпуска: 2013 г.
Продолжительность: 4 x ~ 01:26:19
Российская премьера: 12 октября 2013 (Россия-2)
Режиссер: Андрей Щербинин-В ролях: Евгений Сидихин, Сергей Воробьёв (IV), Геннадий Казачков, Владимир Александров (III), Петр Логачев, Полина Сидихина, Юрий Уткин, Руслан Кацагаджиев, Евгений Кушпель, Андрей Перович, Евгений Курилкин, Юрий Томилин (II), Игорь Царев, Леонид Алимов, Алан Казико, Елизавета Нилова, Юрий Загребнев, Алан Тамаев, Владимир Крылов-Описание: В центре событий четырехсерийного художественного фильма - боевая группа наемников под названием "Стая". Стив, Бес, Шаман, Ронин и Лаванда - военные профессионалы с большим опытом, работающие под прикрытием российских спецслужб.-
Качество видео: SATRip
Контейнер: AVI
Видео кодек: DivX
Аудио кодек: MP3
Видео: 720x400 (1.80:1), 25 fps, DivX Codec 6.8.5/6.9.1 ~1500 kbps avg, 0.21 bit/pixel
Аудио: 48 kHz, MPEG Layer 3, 2 ch, ~128.00 kbps avg
Cубтитры: отсутствуют
Общее
Полное имя : D:\Архив\ФИЛЬМЫ\Pozyvnoj.Staja\Pozyvnoj.Staja.Film.1.2013.SATRip.avi
Формат : AVI
Формат/Информация : Audio Video Interleave
Размер файла : 1011 Мбайт
Продолжительность : 1 ч. 26 м.
Общий поток : 1638 Кбит/сек
Библиотека кодирования : VirtualDub build 32842/release
Видео
Идентификатор : 0
Формат : MPEG-4 Visual
Параметр BVOP формата : 1
Параметр QPel формата : Нет
Параметр GMC формата : Без точки перехода
Параметр матрицы формата : Default (H.263)
Режим смешивания : Сжатый битовый поток
Идентификатор кодека : DX50
Идентификатор кодека/Подсказка : DivX 5
Продолжительность : 1 ч. 26 м.
Битрейт : 1500 Кбит/сек
Ширина : 720 пикселей
Высота : 400 пикселей
Соотношение сторон : 16:9
Частота кадров : 25,000 кадров/сек
Цветовое пространство : YUV
Субдискретизация насыщенности : 4:2:0
Битовая глубина : 8 бит
Тип развёртки : Прогрессивная
Метод сжатия : С потерями
Бит/(Пиксели*Кадры) : 0.208
Размер потока : 926 Мбайт (92%)
Библиотека кодирования : DivX 6.8.5 (UTC 2009-08-20)
Аудио
Идентификатор : 1
Формат : MPEG Audio
Версия формата : Version 1
Профиль формата : Layer 3
Режим : Joint stereo
Расширение режима : MS Stereo
Идентификатор кодека : 55
Идентификатор кодека/Подсказка : MP3
Продолжительность : 1 ч. 26 м.
Вид битрейта : Постоянный
Битрейт : 128 Кбит/сек
Каналы : 2 канала
Частота : 48,0 КГц
Метод сжатия : С потерями
Размер потока : 79,0 Мбайт (8%)
Выравнивание : Разделение по промежуткам
Продолжительность промежутка : 40 мс. (1,00 видеокадр)
Время предзагрузки промежутка : 500 мс.
Download / Скачать

Хотите скачать бесплатно? Зарегистрируйтесь на сайте (ссылка на регистрацию). Pirat.ca - самый быстрый торрент трекер в рунете!

Как скачивать  ·   Что такое торрент  ·   Рейтинг и ограничения

viktor41

Шкипер

Пост 14-Окт-2013 17:47 (спустя 13 минут)

[Q] 

Хороший сериал ! Спасибо!!!
[Профиль]  [ЛС] 

cergo ®

Гроза морей

20045

Пост 14-Окт-2013 17:59 (спустя 12 минут)

[Q] 

435560Хороший сериал ! Спасибо!!!
az
[Профиль]  [ЛС] 

grubov

Морской Волк

54

Пост 18-Окт-2013 15:34 (спустя 3 дня)

[Q] 

Спасибо!!! Всем качать!!! Сериал нормальный посмотретьможно
[Профиль]  [ЛС] 

Sanitar72

Лоцман

Пост 09-Дек-2013 09:02 (спустя 1 месяц 21 день)

[Q] 

не скачивается торрент Не качает
[Профиль]  [ЛС] 

grubov

Морской Волк

54

Пост 24-Фев-2014 01:31 (спустя 2 месяца 14 дней)

[Q] 

Классный сериал, жалко что нет продолжения((
[Профиль]  [ЛС] 

Alexlogin

Гроза морей

105

Пост 24-Фев-2014 18:14 (спустя 16 часов)

[Q] 

Качаю спасибо автору
Добавлено спустя 2 минуты 52 секунды:
B место позывного в названии торрента поставте .torrent и все попрет
[Профиль]  [ЛС] 

Nik DeBori

Морской Волк

Пост 01-Мар-2014 20:31 (спустя 5 дней)

[Q] 

Спасибо! На любителя.
[Профиль]  [ЛС] 

Scorpion7474

Флибустьер

Пост 12-Мар-2014 22:01 (спустя 11 дней)

[Q] 

спасибо Лови бочку
[Профиль]  [ЛС] 

SORDIS

Корсар

Пост 15-Июн-2014 14:41 (спустя 3 месяца 2 дня)

[Q] 

ну глянем
[Профиль]  [ЛС] 

Vintorezov REG 39

Легенда

176

Пост 08-Окт-2014 23:44 (спустя 3 месяца 23 дня)

[Q] 

Хороший фильм. Сидихин дочу проталкивает в актрисы. ca
[Профиль]  [ЛС] 

R_O_Z_A

Морской Волк

Пост 25-Фев-2015 22:16 (спустя 4 месяца 16 дней)

[Q] 

Раздающему большое
спасибо
[Профиль]  [ЛС] 
Показать сообщения:    
Ответить на тему

Текущее время: Сегодня 08:05

Часовой пояс: GMT + 4



Вы не можете начинать темы
Вы не можете отвечать на сообщения
Вы не можете редактировать свои сообщения
Вы не можете удалять свои сообщения
Вы не можете голосовать в опросах
Вы не можете прикреплять файлы к сообщениям
Вы не можете скачивать файлы

▼ Вниз