ML
     
  Уважаемый Гость!
Вы можете поддержать проект и зарегистрироваться у наших партнеров - онлайн-стратегия MyLands. При регистрации в игре Вы получите код, который сможете активировать после регистрации на pirat.ca и получить 1000 дублонов.

Ваш код:
ba41f7961e0b4717aed6a401d955262223b8f6c4
 
     

Поезд на север / Серии: 1-4 из 4 (Алексей Гусев) [2013 г., Остросюжетный сериал, SATRip]

Ответить на тему
 
Автор
Сообщение

Пост 27-Окт-2013 21:10

[Q] 

cergo

Гроза морей

-Поезд на северСерии: 1-4 из 4-- Производство: Россия, ТК "Мостелефильм Дистрибьюшн"
Жанр: Остросюжетный сериал
Год выпуска: 2013 г.
Продолжительность: 4 х ~ 00:45:00
Российская премьера: 27 октября 2013
Режиссер: Алексей Гусев-В ролях: Владимир Гостюхин, Владимир Стеклов, Юрий Кузнецов, Александр Аравушкин, Софья Лебедева, Владимир Гусев, Татьяна Калих, Светлана Никифорова, Алла Пролич, Геннадий Готовчиц, Михаил Павлик-Описание: Бывший десантник Иван Громов живет с большой семьей на ферме в средней полосе России. Когда-то он был на хорошем счету у начальства, дома к его мнению прислушивались и уважали. Но сейчас он для окружающих словно «отработанный материал». И только внучка Лиля все еще слушается старика, любит его и заботится. Так бы и они и жили — родные по крови, но чужие по духу, — пока однажды не пришла в семью Громовых настоящая финансовая катастрофа. Чтобы спасти родных и выбраться из долговой ямы, Лиля принимает предложение руки и сердца от сына местного олигарха – алкоголика и тунеядца Валерика. Узнав об этом, дед берет с внучки обещание повременить с замужеством и отправляется в Магаданский край на золотые прииски, чтобы отыскать золото и спасти внучку от несчастливого брака. Удастся ли бывшему десантнику пройти огонь, воду и медные трубы?-
Качество видео: SATRip
Контейнер: AVI
Видео кодек: XviD
Аудио кодек: MP3
Видео: 720x448 (1.61:1), 25 fps, XviD MPEG-4 ~1493 kbps avg, 0.19 bit/pixel
Аудио: 48 kHz, MPEG Layer 3, 2 ch, ~128.00 kbps avg
Cубтитры: отсутствуют
Общее
Полное имя : D:\Poezd.na.sever.2013.SATRip.avi\Poezd.na.sever.01.2013.SATRip.avi
Формат : AVI
Формат/Информация : Audio Video Interleave
Размер файла : 526 Мбайт
Продолжительность : 45 м.
Общий поток : 1632 Кбит/сек
Программа кодирования : VirtualDubMod 1.5.10.2 (build 2540/release)
Библиотека кодирования : VirtualDub build 32507/release
Видео
Идентификатор : 0
Формат : MPEG-4 Visual
Профиль формата : Advanced [email protected]
Параметр BVOP формата : 2
Параметр QPel формата : Нет
Параметр GMC формата : Без точки перехода
Параметр матрицы формата : Default (MPEG)
Идентификатор кодека : XVID
Идентификатор кодека/Подсказка : XviD
Продолжительность : 45 м.
Битрейт : 1494 Кбит/сек
Ширина : 720 пикселей
Высота : 448 пикселей
Соотношение сторон : 1,607
Частота кадров : 25,000 кадров/сек
Цветовое пространство : YUV
Субдискретизация насыщенности : 4:2:0
Битовая глубина : 8 бит
Тип развёртки : Прогрессивная
Метод сжатия : С потерями
Бит/(Пиксели*Кадры) : 0.185
Размер потока : 482 Мбайт (92%)
Библиотека кодирования : XviD 64
Аудио
Идентификатор : 1
Формат : MPEG Audio
Версия формата : Version 1
Профиль формата : Layer 3
Режим : Joint stereo
Расширение режима : MS Stereo
Идентификатор кодека : 55
Идентификатор кодека/Подсказка : MP3
Продолжительность : 45 м.
Вид битрейта : Постоянный
Битрейт : 128 Кбит/сек
Каналы : 2 канала
Частота : 48,0 КГц
Метод сжатия : С потерями
Размер потока : 41,3 Мбайт (8%)
Выравнивание : Соединение по промежуткам
Продолжительность промежутка : 40 мс. (1,00 видеокадр)
Время предзагрузки промежутка : 504 мс.
Download / Скачать

Хотите скачать бесплатно? Зарегистрируйтесь на сайте (ссылка на регистрацию). Pirat.ca - самый быстрый торрент трекер в рунете!

Как скачивать  ·   Что такое торрент  ·   Рейтинг и ограничения



Последний раз редактировалось: cergo (2013-10-27 21:37), всего редактировалось 1 раз

Пост 27-Окт-2013 21:17 (спустя 6 минут)

Топик был перенесен из форума Отечественные сериалы (Трюм) в форум Отечественные сериалы
kugesan
 

viktor41

Шкипер

Пост 27-Окт-2013 22:39 (спустя 1 час 29 минут)

[Q] 

Спасибо ! Автору респект!!! Супер!
[Профиль]  [ЛС] 

vasilich619

Флибустьер

4713

Пост 27-Окт-2013 23:59 (спустя 1 час 19 минут)

[Q] 

Спасибо !!!-5++++

_________________
Всем моим ошибкам есть оправдание: я живу в первый раз!
[Профиль]  [ЛС] 
Показать сообщения:    
Ответить на тему

Текущее время: Сегодня 14:47

Часовой пояс: GMT + 4



Вы не можете начинать темы
Вы не можете отвечать на сообщения
Вы не можете редактировать свои сообщения
Вы не можете удалять свои сообщения
Вы не можете голосовать в опросах
Вы не можете прикреплять файлы к сообщениям
Вы не можете скачивать файлы

▼ Вниз