ML
     
  Уважаемый Гость!
Вы можете поддержать проект и зарегистрироваться у наших партнеров - онлайн-стратегия MyLands. При регистрации в игре Вы получите код, который сможете активировать после регистрации на pirat.ca и получить 1000 дублонов.

Ваш код:
34514219cfad5497a1822ecc1269bea77988f9aa
 
     

Застава / Сезон: 1 / Серии: 1-12 (Игорь Климов) [2007 г., драма, военный, DVDRip]

Ответить на тему
 
Автор
Сообщение

Пост 27-Окт-2013 22:46

[Q] 

vasilich619

Флибустьер

-Застава --...МЫ НА СВОЕЙ ЗЕМЛЕ И С НАМИ БОГ... Производство: Россия , Студия "Триада", Киностудия "Талан"
Жанр: драма, военный
Год выпуска: 2007 г.
Продолжительность: 12 х ~00:43:00
Российская премьера: 2 мая 2007
Режиссер: Игорь Климов-В ролях: Фархад Махмудов, Рамиль Сабитов, Геннадий Венгеров, Егор Баринов, Сергей Жарков, Александр Пашков, Любовь Толкалина, Владимир Еремин, Игорь Угольников, Максим Мальцев...
Роли дублировали: Юлия Черкасова, Пётр Иващенко, Илья Хвостиков, Наталья Фищук, Александр Рыжков.-Описание: В основе сюжета - подлинные события.
На этом участке границы любое спокойствие - кажущееся. Любая тишина - временная. Здесь никогда нельзя быть уверенным, что день закончится так же благополучно, как начинался. Потому что когда-то именно здесь пролегал старый караванный путь из Азии в Россию, а в последние десятилетия наркомафия пытается проложить здесь широкий путь поставки героина.
Этот фильм о тех, кто встал на пути наркотрафика, кто, рискуя собственной жизнью, противостоит более сильному противнику. О мужестве и доблести пограничников. О тех, для кого защита рубежей родной страны стала частью жизни.
Это фильм не о суперменах. Пограничники - обычные люди, у которых есть свои слабости. Они могут совершать ошибки, и порой - роковые. Но когда судьба предлагает им сделать выбор между честью и жизнью, они, не задумываясь, выбирают первое.-
Качество видео: DVDRip
Контейнер: AVI
Видео кодек: XviD
Аудио кодек: AC3
Видео: 704x400, (16:9), 25.000 fps, Xvid, 1 609 Kbps
Аудио: Русский, оригинал, 48000Hz stereo, 2 ch, Dolby AC3,192kbps
Cубтитры: отсутствуют
Фильм хороший, душевный получился.Но вот режиссеру надо было-бы иметь таджикского консультанта при выборе типажей актеров.Кроме Ф.Махмудова, Р.Хусейнова, мальчика и еще двух-трех персонажей, все на одно лицо:монголоидной расы. А ведь таджики да и афганцы к такой расе не относятся. А там начиная с Надиршаха - ну все скуластые!И говорят совсем не правильно! Вместо-Ин джо биё (Иди сюда),Л.Толкалина говорит во все всеуслышание-Ин чо бил -чуть ли не дебил!И в кишлаке старики говорят на узбекском, а ведь с самого начала про кишлак говорили, что он таджикский, население таджики и гости из Куляба и Кургантюбе!И представителей Агентства по наркотикам РТ и в аэропорту - ну все смахивает не на таджикское лицо! Это большой минус.Все,кто знает таджикскую нацию и народность, таджикский язык, это заметили.Неужели создателям это не важно - путать народы Ср.Азии!У них обычаи и вера одинаковая, а сами они совсем разные по сути. К сожалению многие создатели российских фильмов этого не учитывают.А надо-бы!Восток-дело тонкое!
General
Complete name : E:\Фильмы\Военные\Zastava\Zastava_02.DVDRip.avi
Format : AVI
Format/Info : Audio Video Interleave
File size : 556 MiB
Duration : 43mn 34s
Overall bit rate : 1 784 Kbps
Writing application : VirtualDubMod 1.5.10.3 | www.virtualdub-fr.org || (build 2550/release)
Writing library : VirtualDubMod build 2550/release
Video
ID : 0
Format : MPEG-4 Visual
Format profile : Streaming [email protected]
Format settings, BVOP : Yes
Format settings, QPel : No
Format settings, GMC : No warppoints
Format settings, Matrix : Custom
Codec ID : XVID
Codec ID/Hint : XviD
Duration : 43mn 34s
Bit rate : 1 583 Kbps
Width : 704 pixels
Height : 400 pixels
Display aspect ratio : 16/9
Frame rate : 25.000 fps
Resolution : 24 bits
Colorimetry : 4:2:0
Scan type : Progressive
Bits/(Pixel*Frame) : 0.225
Stream size : 493 MiB (89%)
Writing library : XviD 65
Audio
ID : 1
Format : AC-3
Format/Info : Audio Coding 3
Codec ID : 2000
Duration : 43mn 34s
Bit rate mode : Constant
Bit rate : 192 Kbps
Channel(s) : 2 channels
Channel positions : L R
Sampling rate : 48.0 KHz
Stream size : 59.8 MiB (11%)
Alignment : Split accross interleaves
Interleave, duration : 40 ms (1.00 video frame)
Interleave, preload duration : 500 ms
Download / Скачать

Хотите скачать бесплатно? Зарегистрируйтесь на сайте (ссылка на регистрацию). Pirat.ca - самый быстрый торрент трекер в рунете!

Как скачивать  ·   Что такое торрент  ·   Рейтинг и ограничения

cergo

Гроза морей

20032

Пост 27-Окт-2013 22:59 (спустя 12 минут)

[Q] 

ром в трюме Раздающему респект!
[Профиль]  [ЛС] 

viktor41

Шкипер

Пост 27-Окт-2013 23:40 (спустя 40 минут)

[Q] 

Спасибо за сериал ! Супер! Всем качать!!!
[Профиль]  [ЛС] 

aqwes

Лоцман

Пост 27-Окт-2013 23:59 (спустя 19 минут)

[Q] 

Спасибо Всем качать!!! Лови бочку
[Профиль]  [ЛС] 

jofrei53

Корсар

Пост 20-Ноя-2013 01:04 (спустя 23 дня)

[Q] 

Спасибо!!! Спасибо!!! Автору респект!!!
[Профиль]  [ЛС] 
Показать сообщения:    
Ответить на тему

Текущее время: Сегодня 07:52

Часовой пояс: GMT + 4



Вы не можете начинать темы
Вы не можете отвечать на сообщения
Вы не можете редактировать свои сообщения
Вы не можете удалять свои сообщения
Вы не можете голосовать в опросах
Вы не можете прикреплять файлы к сообщениям
Вы не можете скачивать файлы

▼ Вниз