ML
     
  Уважаемый Гость!
Вы можете поддержать проект и зарегистрироваться у наших партнеров - онлайн-стратегия MyLands. При регистрации в игре Вы получите код, который сможете активировать после регистрации на pirat.ca и получить 1000 дублонов.

Ваш код:
fcd618d94adc1456bccbde5047c9cd0930e4ae4d
 
     

Карпов. Сезон второй. Послесловие. (Сергей Арланов) [2013 г., Фильм о фильме, SATRip] [Фильм о фильме]

Ответить на тему
 
Автор
Сообщение

Пост 01-Ноя-2013 22:02

[Q] 

cergo

Гроза морей

-Карпов. Сезон второй. Послесловие.< Фильм о фильме >-- Производство: Россия
Режиссер: Сергей Арланов
Жанр: Фильм о фильме
Год выпуска: 2013 г.
Продолжительность: 00:44:19
В ролях: Актеры, съёмочная группа сериала-Описание: Два года зрители пристально следили за Стасом Карповым — жестким, противоречивым героем с трудным характером, непростой судьбой и пронзительным взглядом. Два года съемочная группа кропотливо создавала на экране его образ, каждый день добавляя штрих за штрихом к портрету героя, который мало кого оставляет равнодушным. В фильме «Карпов. Сезон второй. Послесловие» — секретные материалы со съемочной площадки. Кто выбрал на роль Карпова Владислава Котлярского? Как актер вживался в роль, что особенного увидел в своем персонаже, как чувствовал себя в настоящей психбольнице во время подготовки к съемкам и как справлялся со сложными трюками без дублера? Драки, взрывы, драматические актерские сцены — как снимались самые зрелищные эпизоды сериала? Что делал Владислав Котлярский на площадке, когда велась работа над кадрами без его участия? Что происходило по ту сторону экрана, почему на площадке царила сюрреалистичная атмосфера, чем жили актеры и авторы во время съемок и как справлялись с напряжением, а главное — будет ли продолжение у «Карпова», смотрите в фильме «Карпов. Сезон второй. Послесловие».-
Качество видео: SATRip
Контейнер: AVI
Видео кодек: DivX
Аудио кодек: MP3
Видео: 720x448 (1.61:1), 25 fps, DivX Codec 6.8.5/6.9.1 ~1499 kbps avg, 0.19 bit/pixel
Аудио: 48 kHz, MPEG Layer 3, 2 ch, ~128.00 kbps avg
Cубтитры: отсутствуют
Общее
Полное имя : D:\Karpov.2.Posleslovie.SATRip.avi
Формат : AVI
Формат/Информация : Audio Video Interleave
Размер файла : 519 Мбайт
Продолжительность : 44 м.
Общий поток : 1637 Кбит/сек
Программа кодирования : TMPGEnc Video Mastering Works 5 Version. 5.0.6.38
Библиотека кодирования : VirtualDub build 29808/release
Видео
Идентификатор : 0
Формат : MPEG-4 Visual
Параметр BVOP формата : Нет
Параметр QPel формата : Нет
Параметр GMC формата : Без точки перехода
Параметр матрицы формата : Default (H.263)
Идентификатор кодека : DX50
Идентификатор кодека/Подсказка : DivX 5
Продолжительность : 44 м.
Битрейт : 1499 Кбит/сек
Ширина : 720 пикселей
Высота : 448 пикселей
Соотношение сторон : 1,607
Частота кадров : 25,000 кадров/сек
Цветовое пространство : YUV
Субдискретизация насыщенности : 4:2:0
Битовая глубина : 8 бит
Тип развёртки : Прогрессивная
Метод сжатия : С потерями
Бит/(Пиксели*Кадры) : 0.186
Размер потока : 475 Мбайт (92%)
Библиотека кодирования : DivX 6.8.5 (UTC 2009-08-20)
Аудио
Идентификатор : 1
Формат : MPEG Audio
Версия формата : Version 1
Профиль формата : Layer 3
Режим : Joint stereo
Расширение режима : MS Stereo
Идентификатор кодека : 55
Идентификатор кодека/Подсказка : MP3
Продолжительность : 44 м.
Вид битрейта : Постоянный
Битрейт : 128 Кбит/сек
Каналы : 2 канала
Частота : 48,0 КГц
Метод сжатия : С потерями
Размер потока : 40,6 Мбайт (8%)
Выравнивание : Разделение по промежуткам
Продолжительность промежутка : 40 мс. (1,00 видеокадр)
Время предзагрузки промежутка : 500 мс.
Здесь сериал.
Download / Скачать

Хотите скачать бесплатно? Зарегистрируйтесь на сайте (ссылка на регистрацию). Pirat.ca - самый быстрый торрент трекер в рунете!

Как скачивать  ·   Что такое торрент  ·   Рейтинг и ограничения

Пост 02-Ноя-2013 03:36 (спустя 5 часов)

Топик был перенесен из форума Наше кино (Трюм) в форум Отечественные сериалы
erchine
 

park25

Лоцман

Пост 02-Дек-2013 20:15 (спустя 1 месяц)

[Q] 

Отличный сериал!
[Профиль]  [ЛС] 
Показать сообщения:    
Ответить на тему

Текущее время: Сегодня 12:51

Часовой пояс: GMT + 4



Вы не можете начинать темы
Вы не можете отвечать на сообщения
Вы не можете редактировать свои сообщения
Вы не можете удалять свои сообщения
Вы не можете голосовать в опросах
Вы не можете прикреплять файлы к сообщениям
Вы не можете скачивать файлы

▼ Вниз