ML
     
  Уважаемый Гость!
Вы можете поддержать проект и зарегистрироваться у наших партнеров - онлайн-стратегия MyLands. При регистрации в игре Вы получите код, который сможете активировать после регистрации на pirat.ca и получить 1000 дублонов.

Ваш код:
a261790f23fb05d13d060bdee9cb70d1451a6d3d
 
     

Кукловоды / Серии: 1-4 из 4 (Марина Исаева) [2013 г., Психологический триллер, SATRip]

Ответить на тему
 
Автор
Сообщение

Пост 09-Ноя-2013 14:39

[Q] 

cergo

Гроза морей

-КукловодыСерии: 1-4 из 4-- Производство: Россия, Студия "Форте-Медиа"
Жанр: Психологический триллер
Год выпуска: 2013 г.
Продолжительность: 4 х ~ 00:50:00
Режиссер:
Марина Исаева-В ролях:
Регина Мянник, Светлана Устинова, Максим Щеголев, Вероника Вернадская, Андрей Лукьянов, Евгений Редько, Игорь Самойлов, Семен Трескунов, Александра Урсуляк, Константин Юшкевич, Инна Гомес-Описание:
Кто-то играет сам, а кем-то играют другие. Так было всегда, и невозможно измерить и разрушить сложившиеся стереотипы. К сожалению, люди могут даже не замечать, что являются марионетками в чьих-то могущественных и властных руках-
Качество видео: SATRip
Контейнер: AVI
Видео кодек: XviD
Аудио кодек: MP3
Видео: 720x416 (1.73:1), 25 fps, XviD MPEG-4 ~1494 kbps avg, 0.20 bit/pixel
Аудио: 48 kHz, MPEG Layer 3, 2 ch, ~128.00 kbps avg
Cубтитры: отсутствуют
Общее
Полное имя : D:\Kuklovody.2013.SATRip.avi\Kuklovody.01.2013.SATRip.avi
Формат : AVI
Формат/Информация : Audio Video Interleave
Размер файла : 598 Мбайт
Продолжительность : 51 м.
Общий поток : 1633 Кбит/сек
Программа кодирования : VirtualDubMod 1.5.10.2 (build 2540/release)
Библиотека кодирования : VirtualDub build 32507/release
Видео
Идентификатор : 0
Формат : MPEG-4 Visual
Профиль формата : Advanced [email protected]
Параметр BVOP формата : 2
Параметр QPel формата : Нет
Параметр GMC формата : Без точки перехода
Параметр матрицы формата : Default (MPEG)
Идентификатор кодека : XVID
Идентификатор кодека/Подсказка : XviD
Продолжительность : 51 м.
Битрейт : 1495 Кбит/сек
Ширина : 720 пикселей
Высота : 416 пикселей
Соотношение сторон : 1,731
Частота кадров : 25,000 кадров/сек
Цветовое пространство : YUV
Субдискретизация насыщенности : 4:2:0
Битовая глубина : 8 бит
Тип развёртки : Прогрессивная
Метод сжатия : С потерями
Бит/(Пиксели*Кадры) : 0.200
Размер потока : 548 Мбайт (92%)
Библиотека кодирования : XviD 64
Аудио
Идентификатор : 1
Формат : MPEG Audio
Версия формата : Version 1
Профиль формата : Layer 3
Режим : Joint stereo
Идентификатор кодека : 55
Идентификатор кодека/Подсказка : MP3
Продолжительность : 51 м.
Вид битрейта : Постоянный
Битрейт : 128 Кбит/сек
Каналы : 2 канала
Частота : 48,0 КГц
Метод сжатия : С потерями
Размер потока : 46,9 Мбайт (8%)
Выравнивание : Соединение по промежуткам
Продолжительность промежутка : 40 мс. (1,00 видеокадр)
Время предзагрузки промежутка : 504 мс.
Download / Скачать

Хотите скачать бесплатно? Зарегистрируйтесь на сайте (ссылка на регистрацию). Pirat.ca - самый быстрый торрент трекер в рунете!

Как скачивать  ·   Что такое торрент  ·   Рейтинг и ограничения

viktor41

Шкипер

Пост 09-Ноя-2013 17:07 (спустя 2 часа 28 минут)

[Q] 

Спасибочки ! Автору респект!!! cergo,
[Профиль]  [ЛС] 

Пост 09-Ноя-2013 18:00 (спустя 52 минуты)

Топик был перенесен из форума Отечественные сериалы (Трюм) в форум Отечественные сериалы
erchine
 

cergo ®

Гроза морей

20051

Пост 09-Ноя-2013 18:54 (спустя 1 час 46 минут)

[Q] 

445938Спасибочки !
az
[Профиль]  [ЛС] 

stasikva52

Лоцман

Пост 07-Янв-2014 12:07 (спустя 1 месяц 27 дней)

[Q] 

Спасибо!!! С Рождеством!
[Профиль]  [ЛС] 

K3F1R

Шкипер

127

Пост 12-Янв-2014 21:32 (спустя 5 дней)

[Q] 

Нет раздающих уже 2й день,скачал 40% и ппц
Раздавать будем или как?
[Профиль]  [ЛС] 

Пират

1474

Пост 12-Янв-2014 22:41 (спустя 1 час 8 минут)

[Q] 

K3F1R, так раздаем ужо! cx

_________________
Всё, что с нами происходит - результат наших прошлых поступков. Наше будущее зависит от того, что мы делаем сейчас...
[Профиль]  [ЛС] 

Юр.И.К.

43

Пост 01-Фев-2016 00:01 (спустя 2 года)

[Q] 

Отличный сериал!
[Профиль]  [ЛС] 
Показать сообщения:    
Ответить на тему

Текущее время: Сегодня 20:03

Часовой пояс: GMT + 4



Вы не можете начинать темы
Вы не можете отвечать на сообщения
Вы не можете редактировать свои сообщения
Вы не можете удалять свои сообщения
Вы не можете голосовать в опросах
Вы не можете прикреплять файлы к сообщениям
Вы не можете скачивать файлы

▼ Вниз