ML
     
  Уважаемый Гость!
Вы можете поддержать проект и зарегистрироваться у наших партнеров - онлайн-стратегия MyLands. При регистрации в игре Вы получите код, который сможете активировать после регистрации на pirat.ca и получить 1000 дублонов.

Ваш код:
ea554e7ed3eacceeae87a8b30a9de3f086c18a84
 
     

Погружение / Серии: 1-4 из 4 (Александр Богуславский) [2013 г., Триллер, фантастика, SATRip]

Ответить на тему
 
Автор
Сообщение

Пост 09-Ноя-2013 21:49

[Q] 

cergo

Гроза морей

-ПогружениеСерии: 1-4 из 4-- Производство: Россия, Стори Фёрст Продакшн
Жанр: Триллер, фантастика
Год выпуска: 2013 г.
Продолжительность: 4 x ~ 00:45:00
Режиссер:
Александр Богуславский-В ролях:
Риналь Мухаметов, Анна Халилулина, Никита Кукушкин, Наталья Бардо, Дмитрий Ендальцев, Юрий Борисов, Артур Бесчастный-Описание:
Игорь - черный копатель, дайвер, и просто любитель приключений приезжает на засекреченный карьер с братом и компанией друзей, на поиски древнего поселения. Погружение в карьер оборачивается сюрпризом. Дайверы оказываются пленниками аномальной зоны...-
Качество видео: SATRip
Контейнер: AVI
Видео кодек: DivX
Аудио кодек: MP3
Видео: 704x368 (1.91:1), 25 fps, DivX Codec 6.8.5/6.9.1 ~1499 kbps avg, 0.23 bit/pixel
Аудио: 48 kHz, MPEG Layer 3, 2 ch, ~128.00 kbps avg
Cубтитры: отсутствуют
Общее
Полное имя : D:\Архив\ФИЛЬМЫ\Погружение (2013) SATRip [4 серии из 4]\Pogruzhenie.01.SATRip.avi
Формат : AVI
Формат/Информация : Audio Video Interleave
Размер файла : 518 Мбайт
Продолжительность : 44 м.
Общий поток : 1637 Кбит/сек
Библиотека кодирования : VirtualDub build 32842/release
Видео
Идентификатор : 0
Формат : MPEG-4 Visual
Параметр BVOP формата : 1
Параметр QPel формата : Нет
Параметр GMC формата : Без точки перехода
Параметр матрицы формата : Default (H.263)
Режим смешивания : Сжатый битовый поток
Идентификатор кодека : DX50
Идентификатор кодека/Подсказка : DivX 5
Продолжительность : 44 м.
Битрейт : 1499 Кбит/сек
Ширина : 704 пикселя
Высота : 368 пикселей
Соотношение сторон : 1,913
Частота кадров : 25,000 кадров/сек
Цветовое пространство : YUV
Субдискретизация насыщенности : 4:2:0
Битовая глубина : 8 бит
Тип развёртки : Прогрессивная
Метод сжатия : С потерями
Бит/(Пиксели*Кадры) : 0.231
Размер потока : 475 Мбайт (92%)
Библиотека кодирования : DivX 6.8.5 (UTC 2009-08-20)
Аудио
Идентификатор : 1
Формат : MPEG Audio
Версия формата : Version 1
Профиль формата : Layer 3
Режим : Joint stereo
Расширение режима : MS Stereo
Идентификатор кодека : 55
Идентификатор кодека/Подсказка : MP3
Продолжительность : 44 м.
Вид битрейта : Постоянный
Битрейт : 128 Кбит/сек
Каналы : 2 канала
Частота : 48,0 КГц
Метод сжатия : С потерями
Размер потока : 40,5 Мбайт (8%)
Выравнивание : Разделение по промежуткам
Продолжительность промежутка : 40 мс. (1,00 видеокадр)
Время предзагрузки промежутка : 500 мс.
Download / Скачать

Хотите скачать бесплатно? Зарегистрируйтесь на сайте (ссылка на регистрацию). Pirat.ca - самый быстрый торрент трекер в рунете!

Как скачивать  ·   Что такое торрент  ·   Рейтинг и ограничения

Dysy

Морской Волк

Пост 10-Ноя-2013 13:28 (спустя 15 часов)

[Q] 

Скачаю ....поддержу раздачу.
[Профиль]  [ЛС] 

cergo ®

Гроза морей

20035

Пост 10-Ноя-2013 18:46 (спустя 5 часов)

[Q] 

446335Скачаю ....поддержу раздачу.
az
[Профиль]  [ЛС] 

Dysy

Морской Волк

Пост 12-Ноя-2013 15:13 (спустя 1 день 20 часов)

[Q] 

Посмотрел Автору респект!!! кино убойное Всем качать!!!
[Профиль]  [ЛС] 

ss80

Флибустьер

36

Пост 02-Дек-2013 20:09 (спустя 20 дней)

[Q] 

Спасибо!!! Автору респект!!!
[Профиль]  [ЛС] 
Показать сообщения:    
Ответить на тему

Текущее время: Сегодня 12:14

Часовой пояс: GMT + 4



Вы не можете начинать темы
Вы не можете отвечать на сообщения
Вы не можете редактировать свои сообщения
Вы не можете удалять свои сообщения
Вы не можете голосовать в опросах
Вы не можете прикреплять файлы к сообщениям
Вы не можете скачивать файлы

▼ Вниз