ML
     
  Уважаемый Гость!
Вы можете поддержать проект и зарегистрироваться у наших партнеров - онлайн-стратегия MyLands. При регистрации в игре Вы получите код, который сможете активировать после регистрации на pirat.ca и получить 1000 дублонов.

Ваш код:
e93cd9e43017f251127f220889864c05934e61c6
 
     

Дельта / Рыбнадзор (Серии: 1-24) (Сергей Лялин, Сергей Виноградов) [2013 г., боевик, SATRip]

Ответить на тему
 
Автор
Сообщение

Пост 18-Ноя-2013 17:54

[Q] 

vasilich619

Флибустьер

-Дельта / Рыбнадзор -- Производство: Россия, Мостелефильм
Жанр: боевик
Год выпуска: 2013 г.
Продолжительность: 18:17:02
Российская премьера: 16 сентября 2013
Дата выхода DVD: 5 декабря 2013, «Мистерия Звука»
Режиссер: Сергей Лялин, Сергей Виноградов-В ролях: Вадим Колганов, Анна Казючиц, Сергей Цепов, Степан Абрамов, Сергей Селин, Александр Баширов, Александр Тютин, Денис Карасёв, Мария Хижняк, Геннадий Матвеев, Николай Соловьев...-Описание: Андрей Бекетов приехал в дельту Волги отдохнуть и навестить своего друга Павла Лобанова, работающего инспектором рыбоохраны. Когда-то они вместе служили в спецназе, потом Лобанов вернулся в родную деревню, а Бекетов ушел на работу в городскую полицию, но был оттуда уволен за излишнюю принципиальность…-
Качество видео: SATRip
Контейнер: AVI
Видео кодек: XviD
Аудио кодек: MP3
Видео: 720x416 (1.73:1), 25 fps, XviD MPEG-4 ~1491 kbps avg, 0.20 bit/pixel
Аудио: русский, оригинал, 48 kHz, MPEG Layer 3, 2 ch, ~128.00 kbps avg
Cубтитры: отсутствуют
General
Complete name : D:\НАШЕ\Deljta.01.2013.SATRip\Deljta.01.2013.SATRip.avi
Format : AVI
Format/Info : Audio Video Interleave
File size : 524 MiB
Duration : 45mn 0s
Overall bit rate : 1 629 Kbps
Writing application : VirtualDubMod 1.5.10.2 (build 2540/release)
Writing library : VirtualDub build 32507/release
Video
ID : 0
Format : MPEG-4 Visual
Format profile : Streaming [email protected]
Format settings, BVOP : Yes
Format settings, QPel : No
Format settings, GMC : No warppoints
Format settings, Matrix : Default (MPEG)
Codec ID : XVID
Codec ID/Hint : XviD
Duration : 45mn 0s
Bit rate : 1 491 Kbps
Width : 720 pixels
Height : 416 pixels
Display aspect ratio : 16/9
Frame rate : 25.000 fps
Resolution : 24 bits
Colorimetry : 4:2:0
Scan type : Progressive
Bits/(Pixel*Frame) : 0.199
Stream size : 480 MiB (92%)
Writing library : XviD 64
Audio
ID : 1
Format : MPEG Audio
Format version : Version 1
Format profile : Layer 3
Codec ID : 55
Codec ID/Hint : MP3
Duration : 45mn 0s
Bit rate mode : Constant
Bit rate : 128 Kbps
Channel(s) : 2 channels
Sampling rate : 48.0 KHz
Resolution : 16 bits
Stream size : 41.2 MiB (8%)
Alignment : Aligned on interleaves
Interleave, duration : 40 ms (1.00 video frame)
Interleave, preload duration : 504 ms
Download / Скачать

Хотите скачать бесплатно? Зарегистрируйтесь на сайте (ссылка на регистрацию). Pirat.ca - самый быстрый торрент трекер в рунете!

Как скачивать  ·   Что такое торрент  ·   Рейтинг и ограничения

Пост 18-Ноя-2013 19:45 (спустя 1 час 51 минута)

Топик был перенесен из форума Отечественные сериалы (Трюм) в форум Отечественные сериалы
kugesan
 
Показать сообщения:    
Ответить на тему

Текущее время: Сегодня 04:29

Часовой пояс: GMT + 4



Вы не можете начинать темы
Вы не можете отвечать на сообщения
Вы не можете редактировать свои сообщения
Вы не можете удалять свои сообщения
Вы не можете голосовать в опросах
Вы не можете прикреплять файлы к сообщениям
Вы не можете скачивать файлы

▼ Вниз