ML
     
  Уважаемый Гость!
Вы можете поддержать проект и зарегистрироваться у наших партнеров - онлайн-стратегия MyLands. При регистрации в игре Вы получите код, который сможете активировать после регистрации на pirat.ca и получить 1000 дублонов.

Ваш код:
a01a592a88af5f9996a6d1baec61b18a1769954d
 
     

Пятницкий. Глава третья. / Сезон: 3 / Серии: 1-30 из 30 (Григорий Фёдоров, Мичислав Юзовский) [2013 г., Детектив, криминал, драма, SATRip]

Ответить на тему
 
Автор
Сообщение

Пост 29-Ноя-2013 22:53

[Q] 

cergo

Гроза морей

-ПятницкийГлава третьяСерии: 1-30 из 30--
Производство: Россия, Телекомпания "Дикси-ТВ"
Жанр: Детектив, криминал, драма
Год выпуска: 2013 г.
Продолжительность: 30 x ~ 00:45:00
Российская премьера: 5 ноября 2013
Режиссер: Григорий Фёдоров, Мичислав Юзовский-В ролях: Виктория Тарасова, Владислав Котлярский, Денис Рожков, Дмитрий Мазуров, Анна Липко, Антон Батырев, Георгий Тополага, Виктория Герасимова, Андрей Сорока, Антон Афанасьев, Сергей Гурьев, Павел Мисаилов, Сандра Элиава, Игорь Стам, Роман Гапанюк, Александр Бобров, Мария Рассказова, Степан Рожнов, Денис Жариков-Описание: В новой главе героям "Пятницкого" придется самим выступить в роли палачей. Зиминой и ее товарищам предстоит убедиться в очередной раз: если существующие законы не позволяют добиться справедливости, их нужно переписать под себя. И теперь наши герои выбирают новый инструмент написания таких "законов" - голосование. Путем голосования они определяют судьбы тех или иных преступников, когда того требуют обстоятельства. Это еще больше сплачивает сотрудников Отдела, приближая их небольшую слаженную команду к настоящей анархической группе, которая контролирует целый район Москвы... Но действительно ли всем по душе и по плечу окажется их новая роль? Все ли будут готовы идти до конца за Зиминой, методы которой становятся все жестче и решительнее? Нет, разлад в коллективе неизбежен. Неизбежны и жертвы. На что будет готова пойти Зимина, чтобы сохранить друзей и поддержать мир и спокойствие на "земле Пятницкого"?-
Качество видео: SATRip
Контейнер: AVI
Видео кодек: XviD
Аудио кодек: MP3
Видео: 720x448 (1.61:1), 25 fps, XviD MPEG-4 ~1644 kbps avg, 0.20 bit/pixel
Аудио: 48 kHz, MPEG Layer 3, 2 ch, ~128.00 kbps avg
Cубтитры: отсутствуют
Общее
Полное имя : D:\Архив\ФИЛЬМЫ\Pyatnetskiy.3.2013SATRip\Pyatnetskiy.3.(01.Seriya).2013.SATRip.avi
Формат : AVI
Формат/Информация : Audio Video Interleave
Размер файла : 564 Мбайт
Продолжительность : 44 м.
Общий поток : 1782 Кбит/сек
Библиотека кодирования : VirtualDub build 34807/release
Видео
Идентификатор : 0
Формат : MPEG-4 Visual
Профиль формата : Advanced [email protected]
Параметр BVOP формата : 2
Параметр QPel формата : Нет
Параметр GMC формата : Без точки перехода
Параметр матрицы формата : Default (H.263)
Режим смешивания : Сжатый битовый поток
Идентификатор кодека : XVID
Идентификатор кодека/Подсказка : XviD
Продолжительность : 44 м.
Битрейт : 1644 Кбит/сек
Ширина : 720 пикселей
Высота : 448 пикселей
Соотношение сторон : 16:10
Частота кадров : 25,000 кадров/сек
Цветовое пространство : YUV
Субдискретизация насыщенности : 4:2:0
Битовая глубина : 8 бит
Тип развёртки : Прогрессивная
Метод сжатия : С потерями
Бит/(Пиксели*Кадры) : 0.204
Размер потока : 520 Мбайт (92%)
Библиотека кодирования : XviD 64
Аудио
Идентификатор : 1
Формат : MPEG Audio
Версия формата : Version 1
Профиль формата : Layer 3
Режим : Joint stereo
Расширение режима : MS Stereo
Идентификатор кодека : 55
Идентификатор кодека/Подсказка : MP3
Продолжительность : 44 м.
Вид битрейта : Постоянный
Битрейт : 128 Кбит/сек
Каналы : 2 канала
Частота : 48,0 КГц
Метод сжатия : С потерями
Размер потока : 40,5 Мбайт (7%)
Выравнивание : Разделение по промежуткам
Продолжительность промежутка : 40 мс. (1,00 видеокадр)
Время предзагрузки промежутка : 500 мс.
Download / Скачать

Хотите скачать бесплатно? Зарегистрируйтесь на сайте (ссылка на регистрацию). Pirat.ca - самый быстрый торрент трекер в рунете!

Как скачивать  ·   Что такое торрент  ·   Рейтинг и ограничения

ss80

Флибустьер

36

Пост 30-Ноя-2013 19:40 (спустя 20 часов)

[Q] 

Спасибо Автору респект!!!
[Профиль]  [ЛС] 

manu

Пост 06-Дек-2013 18:00 (спустя 5 дней)

[Q] 

Большое спасибо за сериал.
[Профиль]  [ЛС] 

cergo ®

Гроза морей

20056

Пост 06-Дек-2013 19:13 (спустя 1 час 13 минут)

[Q] 

458997Большое спасибо за сериал.
aa az
[Профиль]  [ЛС] 
Показать сообщения:    
Ответить на тему

Текущее время: Сегодня 09:48

Часовой пояс: GMT + 4



Вы не можете начинать темы
Вы не можете отвечать на сообщения
Вы не можете редактировать свои сообщения
Вы не можете удалять свои сообщения
Вы не можете голосовать в опросах
Вы не можете прикреплять файлы к сообщениям
Вы не можете скачивать файлы

▼ Вниз