ML
     
  Уважаемый Гость!
Вы можете поддержать проект и зарегистрироваться у наших партнеров - онлайн-стратегия MyLands. При регистрации в игре Вы получите код, который сможете активировать после регистрации на pirat.ca и получить 1000 дублонов.

Ваш код:
4fbd9898b6f10799a3e8edf60f31febd2bc15453
 
     

Оттепель / Сезон: 1 / Серии: 1-12 из 12 (Валерий Тодоровский) [2013 г., драма, HDTVRip]

Ответить на тему
 
Автор
Сообщение

Пост 06-Дек-2013 12:03

[Q] 

slave_yar

Лоцман

-Оттепель-- Производство: ООО «АЛЬЯНС ПРОФИ» Россия
Жанр: драма
Год выпуска: 2013 г.
Продолжительность: 00:50:00
Режиссер: Валерий Тодоровский-В ролях: Евгений Цыганов (Хрусталев), Александр Яценко (Мячин), Аня Чиповская (Марьяна), Виктория Исакова (Инга), Михаил Ефремов (Кривицкий), Светлана Колпакова (Надя Кривицкая), Яна Сексте (Люся), Нина Дворжецкая (Регина Марковна), Павел Деревянко (Будник), Евгений Волоцкий (Санча), Василий Мищенко (следователь Цанин), Андрей Смирнов (отец Хрусталева), Владимир Гостюхин (директор киностудии - Пронин), Валерий Тодоровский в роли режиссера-Описание: После гибели друга-сценариста оператор Виктор Хрусталев и режиссер Егор Мячин решают во что бы то ни стало снять фильм по его последнему сценарию. Но жизнь складывается так, чтобы снять фильм по сценарию друга, приходиться снять чужой фильм, который впоследствии изменит жизнь каждого. Фильм рассказывает о молодых людях, которые работают в кино. Они молоды, красивы, талантливы и они влюблены.
Идея создания многосерийного телевизионного фильма "Оттепель" принадлежит продюсеру, режиссеру Валерию Тодоровского. Как продюсер он создал более 30 телевизионных фильмов и сериалов. Самыми громкими и успешными среди них были "Идиот", "Мастер и Маргарита", "Каменская", "Бригада". Но как режиссер Тодоровский снимал только полнометражные художественные фильмы. "Оттепель" - режиссерский дебют Валерия Тодоровского на телевидении. Снять многосерийный фильм, о поколении шестидесятников, было задумано Валерием Тодоровским после окончания работы над мюзиклом "Стиляги". Этот фильм о поколении отца Валерия Тодоровского - Петра Ефимовича, известного оператора и режиссера, и многое о чем рассказывается в многосерийном фильме - реальные истории. Но авторы все же настаивают, что все персонажи вымышленные и образы их собирательные.-
Качество видео: HDTVRip
Контейнер: AVI
Видео кодек: XviD
Аудио кодек: AC3
Видео: 720x400 (1.80:1), 25 fps, XviD MPEG-4 ~1419 kbps avg, 0.197 bit/pixel
Аудио: 48 kHz, AC3 Dolby Digital, 2/0 (L,R) ch, ~192 kbps
Cубтитры: отсутствуют
Формат : AVI
Формат/Информация : Audio Video Interleave
Размер файла : 837 Мбайт
Продолжительность : 1 ч. 9 м.
Общий поток : 1686 Кбит/сек
Библиотека кодирования : VirtualDub build 32507/release
Видео
Идентификатор : 0
Формат : MPEG-4 Visual
Профиль формата : Advanced [email protected]
Параметр BVOP формата : 2
Параметр QPel формата : Нет
Параметр GMC формата : Без точки перехода
Параметр матрицы формата : Default (H.263)
Режим смешивания : Сжатый битовый поток
Идентификатор кодека : XVID
Идентификатор кодека/Подсказка : XviD
Продолжительность : 1 ч. 9 м.
Битрейт : 1419 Кбит/сек
Ширина : 720 пикс.
Высота : 400 пикс.
Соотношение сторон : 16:9
Частота кадров : 25,000 кадр/сек
Цветовое пространство : YUV
Подвыборка цветности : 4:2:0
Битовая глубина : 8 бит
Тип развёртки : Прогрессивная
Метод сжатия : С потерями
Бит/(Пиксели*Кадры) : 0.197
Размер потока : 704 Мбайт (84%)
Библиотека кодирования : XviD 1.1.2 (UTC 2006-11-01)
Аудио
Идентификатор : 1
Формат : AC-3
Формат/Информация : Audio Coding 3
Расширение режима : CM (complete main)
Идентификатор кодека : 2000
Продолжительность : 1 ч. 9 м.
Вид битрейта : Постоянный
Битрейт : 192 Кбит/сек
Каналы : 2 канала
Расположение каналов : Front: L R
Частота : 48,0 КГц
Битовая глубина : 16 бит
Метод сжатия : С потерями
Размер потока : 95,3 Мбайт (11%)
Выравнивание : Соединение по промежуткам
Download / Скачать

Хотите скачать бесплатно? Зарегистрируйтесь на сайте (ссылка на регистрацию). Pirat.ca - самый быстрый торрент трекер в рунете!

Как скачивать  ·   Что такое торрент  ·   Рейтинг и ограничения



Последний раз редактировалось: slave_yar (2013-12-13 13:23), всего редактировалось 3 раз(а)

Пост 13-Дек-2013 15:23 (спустя 7 дней)

Топик был перенесен из форума Сериалы в эфире в форум Отечественные сериалы
kugesan
 

poleshuk

Морской Волк

Пост 14-Дек-2013 22:44 (спустя 8 дней)

[Q] 

Всем качать!!! Супер! вот и посмотрим
[Профиль]  [ЛС] 

eevgenu45

Морской Волк

Пост 16-Дек-2013 20:41 (спустя 1 день 21 час)

[Q] 

Ребята что-то скорости совсем нету(
[Профиль]  [ЛС] 

sevensv

Легенда

2585

Пост 17-Дек-2013 20:22 (спустя 23 часа)

[Q] 

!COOL! Супер! качаем!!!
[Профиль]  [ЛС] 

moscowpan

3434

Пост 05-Янв-2014 17:27 (спустя 18 дней)

[Q] 

SeedAid
Спасибо!!!

_________________
[Профиль]  [ЛС] 
Показать сообщения:    
Ответить на тему

Текущее время: Сегодня 19:57

Часовой пояс: GMT + 4



Вы не можете начинать темы
Вы не можете отвечать на сообщения
Вы не можете редактировать свои сообщения
Вы не можете удалять свои сообщения
Вы не можете голосовать в опросах
Вы не можете прикреплять файлы к сообщениям
Вы не можете скачивать файлы

▼ Вниз