ML
     
  Уважаемый Гость!
Вы можете поддержать проект и зарегистрироваться у наших партнеров - онлайн-стратегия MyLands. При регистрации в игре Вы получите код, который сможете активировать после регистрации на pirat.ca и получить 1000 дублонов.

Ваш код:
193c38d0130f05c24de871678ea3ac181461757d
 
     

В зоне риска / Серии: 1-16 из 16 (Владимир Котт) [2012 г., Боевик, детектив, криминал, SATRip]

Ответить на тему
 
Автор
Сообщение

Пост 08-Дек-2013 14:35

[Q] 

cergo

Гроза морей

-В зоне рискаСерии: 1-16 из 16-- Производство: Россия
Жанр: Боевик, детектив, криминал
Год выпуска: 2012 г.
Продолжительность: 16 x ~ 00:45:00
Дата выхода DVD: 24 октября 2013, «Русское счастье»
Режиссер: Владимир Котт-В ролях: Евгений Сидихин, Алексей Кравченко, Наталья Рычкова, Юрий Борисов (II), Александра Тюфтей, Александр Кудинов, Анна Якунина, Дарья Чаруша, Роман Индык, Олег Чернов, Андрей Карасевич, Никита Емшанов, Рауль Ганеев, Владимир Денисов, Павел Исайкин, Эдуард Рябинин, Николай Точилин, Марк Богатырёв, Людмила Марьянова, Михаил Калгин, Александр Глинский, Сергей Коваленко, Никита Татаренков, Ильдар Аллабирдин, Мария Букнис, Алексей Овсянников, Николай Дроздовский, Иван Машнин, Надежда Борисова, Александр Ревенко, Юрий Оленников, Алексей Ярмилко, Сергей Беляев, Даниил Кокин, Роман Гредин, Сергей Мещеряков, Николай Маликов (II), Евгений Бакалов, Алексей Свиридов, Павел Капитонов, Стас Наумов, Сергей Наум-Описание: Оперативнику Сергею Демидову поручают возглавить новую команду. Своенравный Вадим Непогода - отличный оперативник и смельчак, способный в любой ситуации протянуть руку помощи, прикрыть спину. Марина Говорнова - в прошлом профессиональная биатлонистка, мастерски стреляет из многих видов оружия. К тому же выясняется, что у нее - дар переговорщика. "Желторотик" Денис Тавардин отлично разбирается в компьютерах и становится "техническим гением" команды...В каждой серии группа Демидова получает новое задание и приступает к розыску преступника или преступников, сбежавших из-под стражи. Это убийцы, налетчики, мошенники. Они бегут и из мест заключения, и во время этапа, и из психиатрических клиник, и прямо из зала суда... Команда работает отлично и ловит беглецов. Однако Демидова мучает подозрение, что кто-то в команде "крот" и предатель...-
Качество видео: SATRip
Контейнер: AVI
Видео кодек: XviD
Аудио кодек: MP3
Видео: 720x384 (1.88:1), 25 fps, XviD build 50 ~1600 kbps avg, 0.23 bit/pixel
Аудио: 48 kHz, MPEG Layer 3, 2 ch, ~192.00 kbps avg
Cубтитры: отсутствуют
Общее
Полное имя : D:\V.zone.riska.2012.XviD.SATRip.avi\V.zone.riska.(01.seriya).2012.XviD.SATRip.avi
Формат : AVI
Формат/Информация : Audio Video Interleave
Размер файла : 562 Мбайт
Продолжительность : 43 м.
Общий поток : 1801 Кбит/сек
Программа кодирования : VirtualDubModRus 1.5.10.2 (build 2540/release)
Библиотека кодирования : VirtualDubMod build 2540/release
Видео
Идентификатор : 0
Формат : MPEG-4 Visual
Профиль формата : Advanced [email protected]
Параметр BVOP формата : 1
Параметр QPel формата : Нет
Параметр GMC формата : Без точки перехода
Параметр матрицы формата : Default (H.263)
Идентификатор кодека : XVID
Идентификатор кодека/Подсказка : XviD
Продолжительность : 43 м.
Битрейт : 1600 Кбит/сек
Ширина : 720 пикселей
Высота : 384 пикселя
Соотношение сторон : 1,85:1
Частота кадров : 25,000 кадров/сек
Цветовое пространство : YUV
Субдискретизация насыщенности : 4:2:0
Битовая глубина : 8 бит
Тип развёртки : Прогрессивная
Метод сжатия : С потерями
Бит/(Пиксели*Кадры) : 0.231
Размер потока : 499 Мбайт (89%)
Библиотека кодирования : XviD 1.2.1 (UTC 2008-12-04)
Аудио
Идентификатор : 1
Формат : MPEG Audio
Версия формата : Version 1
Профиль формата : Layer 3
Идентификатор кодека : 55
Идентификатор кодека/Подсказка : MP3
Продолжительность : 43 м.
Вид битрейта : Постоянный
Битрейт : 192 Кбит/сек
Каналы : 2 канала
Частота : 48,0 КГц
Метод сжатия : С потерями
Размер потока : 59,9 Мбайт (11%)
Выравнивание : Соединение по промежуткам
Продолжительность промежутка : 40 мс. (1,00 видеокадр)
Время предзагрузки промежутка : 504 мс.
Библиотека кодирования : LAME3.98r
Настройки программы : -m s -V 4 -q 2 -lowpass 18.6 -b 192
Download / Скачать

Хотите скачать бесплатно? Зарегистрируйтесь на сайте (ссылка на регистрацию). Pirat.ca - самый быстрый торрент трекер в рунете!

Как скачивать  ·   Что такое торрент  ·   Рейтинг и ограничения

julikam

Гроза морей

Пост 15-Дек-2013 21:21 (спустя 7 дней)

[Q] 

Раздающему респект!

_________________

Не может быть отремонтировано только то, что не сломано.
[Профиль]  [ЛС] 

cergo ®

Гроза морей

20035

Пост 15-Дек-2013 21:42 (спустя 21 минута)

[Q] 

462871 Раздающему респект!
Спасибо!!!
[Профиль]  [ЛС] 
Показать сообщения:    
Ответить на тему

Текущее время: Сегодня 18:02

Часовой пояс: GMT + 4



Вы не можете начинать темы
Вы не можете отвечать на сообщения
Вы не можете редактировать свои сообщения
Вы не можете удалять свои сообщения
Вы не можете голосовать в опросах
Вы не можете прикреплять файлы к сообщениям
Вы не можете скачивать файлы

▼ Вниз