ML
     
  Уважаемый Гость!
Вы можете поддержать проект и зарегистрироваться у наших партнеров - онлайн-стратегия MyLands. При регистрации в игре Вы получите код, который сможете активировать после регистрации на pirat.ca и получить 1000 дублонов.

Ваш код:
fe4e93b754a7c2b306fcfc8bc32532ea1cf59d3b
 
     

Двойной блюз / Серии: 1-4 из 4 (Виктор Татарский) [2013 г., криминал, детектив, SATRip]

Ответить на тему
 
Автор
Сообщение

Пост 08-Дек-2013 15:05

[Q] 

cergo

Гроза морей

-Двойной блюзСерии: 1-4 из 4-- Производство: Россия, Триикс Медиа
Жанр: криминал, детектив
Год выпуска: 2013 г.
Продолжительность: 4 х ~00:43:00
Российская премьера: 15 сентября 2013
Режиссер: Виктор Татарский-В ролях: Сергей Горобченко, Алексей Кравченко, Наталья Бурмистрова (II), Татьяна Бондаренко (II), Геннадий Венгеров, Александра Петрова (II), Алёна Азарова, Вячеслав Гасай, Денис Пьянов-Описание: Полицейские Игорь Крутицкий и Олег Левин уже семь лет работают в одной опергруппе и по праву считаются лучшими в городе. Но в последнее время Левин замечает, что с его напарником и другом что-то происходит: Крутицкий все чаще превышает должностные полномочия, рискует. Однажды во время задержания опасного преступника Игорь открывает огонь на поражение, хотя вокруг - мирные люди. Своей вины он не признает, считая, что защита закона - борьба без правил. Левин до последнего верит, что боевой товарищ угомонится, но тут жена Крутицкого - Наташа - жалуется на побои и просит помочь скрыться от агрессивного супруга. А вскоре Крутицкий переходит опасную грань: при попытке задержать банду налетчиков, Игорь расстреливает всех подозреваемых и, чтобы скрыть свое преступление, грозится убить всю семью Левина, если тот не скажет, что преступники первыми открыли огонь. Олегу предстоит сделать непростой выбор...-
Качество видео: SATRip
Контейнер: AVI
Видео кодек: DivX
Аудио кодек: MP3
Видео: 720x400 (1.80:1), 25 fps, DivX Codec 6.8.5/6.9.1 ~1500 kbps avg, 0.21 bit/pixel
Аудио: 48 kHz, MPEG Layer 3, 2 ch, ~128.00 kbps avg
Cубтитры: отсутствуют
Общее
Полное имя : D:\Архив\ФИЛЬМЫ\Dvoynoy.blyuz.2013.SATRip\Dvoynoy.blyuz.01.avi
Формат : AVI
Формат/Информация : Audio Video Interleave
Размер файла : 509 Мбайт
Продолжительность : 43 м.
Общий поток : 1638 Кбит/сек
Библиотека кодирования : VirtualDub build 32842/release
Видео
Идентификатор : 0
Формат : MPEG-4 Visual
Параметр BVOP формата : 1
Параметр QPel формата : Нет
Параметр GMC формата : Без точки перехода
Параметр матрицы формата : Default (H.263)
Режим смешивания : Сжатый битовый поток
Идентификатор кодека : DX50
Идентификатор кодека/Подсказка : DivX 5
Продолжительность : 43 м.
Битрейт : 1500 Кбит/сек
Ширина : 720 пикселей
Высота : 400 пикселей
Соотношение сторон : 16:9
Частота кадров : 25,000 кадров/сек
Цветовое пространство : YUV
Субдискретизация насыщенности : 4:2:0
Битовая глубина : 8 бит
Тип развёртки : Прогрессивная
Метод сжатия : С потерями
Бит/(Пиксели*Кадры) : 0.208
Размер потока : 467 Мбайт (92%)
Библиотека кодирования : DivX 6.8.5 (UTC 2009-08-20)
Аудио
Идентификатор : 1
Формат : MPEG Audio
Версия формата : Version 1
Профиль формата : Layer 3
Режим : Joint stereo
Идентификатор кодека : 55
Идентификатор кодека/Подсказка : MP3
Продолжительность : 43 м.
Вид битрейта : Постоянный
Битрейт : 128 Кбит/сек
Каналы : 2 канала
Частота : 48,0 КГц
Метод сжатия : С потерями
Размер потока : 39,8 Мбайт (8%)
Выравнивание : Разделение по промежуткам
Продолжительность промежутка : 40 мс. (1,00 видеокадр)
Время предзагрузки промежутка : 500 мс.
Download / Скачать

Хотите скачать бесплатно? Зарегистрируйтесь на сайте (ссылка на регистрацию). Pirat.ca - самый быстрый торрент трекер в рунете!

Как скачивать  ·   Что такое торрент  ·   Рейтинг и ограничения

h5n1

Гроза морей

483

Пост 10-Дек-2013 06:27 (спустя 1 день 15 часов)

[Q] 

чо хоть за кино?стоит качать?

_________________
«Мы находимся здесь, чтобы внести свой вклад в этот мир. Иначе зачем мы здесь?» S.Jobs
[Профиль]  [ЛС] 

julikam

Гроза морей

Пост 15-Дек-2013 21:47 (спустя 5 дней)

[Q] 

Раздающему респект!

_________________

Не может быть отремонтировано только то, что не сломано.
[Профиль]  [ЛС] 

andre9501

Лоцман

Пост 27-Сен-2014 09:33 (спустя 9 месяцев 11 дней)

[Q] 

кино класс качайте смело
[Профиль]  [ЛС] 
Показать сообщения:    
Ответить на тему

Текущее время: Сегодня 14:31

Часовой пояс: GMT + 4



Вы не можете начинать темы
Вы не можете отвечать на сообщения
Вы не можете редактировать свои сообщения
Вы не можете удалять свои сообщения
Вы не можете голосовать в опросах
Вы не можете прикреплять файлы к сообщениям
Вы не можете скачивать файлы

▼ Вниз