ML
     
  Уважаемый Гость!
Вы можете поддержать проект и зарегистрироваться у наших партнеров - онлайн-стратегия MyLands. При регистрации в игре Вы получите код, который сможете активировать после регистрации на pirat.ca и получить 1000 дублонов.

Ваш код:
e93cd9e43017f251127f220889864c05934e61c6
 
     

Гончие-6 / Сезон: 6 / Серии: 1-8 из 8 (Валерий Мызников) [2013 г., Боевик, детектив, криминальный фильм, SATRip]

Ответить на тему
 
Автор
Сообщение

Пост 15-Дек-2013 00:05

[Q] 

cergo

Гроза морей

-Гончие-6Серии: 1-8 из 8-- Производство: Россия, "Форвард-Фильм", "Студия Панорама", НТВ
Жанр: Боевик, детектив, криминальный фильм
Год выпуска: 2013 г.
Продолжительность: 8 х ~ 00:46:00
Режиссер: Валерий Мызников-В ролях: Павел Майков, Максим Фомин, Борис Хвошнянский, Елизавета Александрова, Владимир Абросимов, Павел Узденский, Евгения Белобородова, Виталий Салтыков, Александра Мареева, Андрей Феськов, Алексей Титков, Инна Коляда, Александр Загребин, Владимир Космидайло, Александр Иванов (XIX), Сергей Носиков, Виктор Бабак-Описание: Под руководством нового начальника – Владимира Резникова – работа розыскного отдела УФСИН приобретает новые черты и темп, к которому полковник успел привыкнуть во время своей службы в ФСБ, тем более, что многие дела «гончим» приходится вести совместно с бывшими коллегами Резникова. Непредсказуемая и опасная служба «гончих» часто лишает их самых простых человеческих радостей, таких как общение с близкими людьми, отдых в кругу семьи и тихий домашний уют. Но иногда жизнь всё-таки дарит им минуты настоящего счастья: Звонарёва узнаёт, что беременна; к Резникову из Москвы приезжает дочь, а затем возвращается его возлюбленная Настя; а совсем недавно женившийся Градов становится отцом. Все эти отрадные события вносят коррективы в жизнь отдела. Теперь Рите придётся воздержаться от беготни за бандитами, Градову нужно озаботиться устройством маленького сына, а Резников решает взять отпуск, чтобы провести его рядом с любимыми женщинами. Но работа, как всегда, вмешивается в радужные планы оперативников.-
Качество видео: SATRip
Контейнер: AVI
Видео кодек: XviD
Аудио кодек: MP3
Видео: 720x400 (1.80:1), 25 fps, XviD build 50 ~1431 kbps avg, 0.20 bit/pixel
Аудио: 48 kHz, MPEG Layer 3, 2 ch, ~192.00 kbps avg
Cубтитры: отсутствуют
Общее
Полное имя : D:\Архив\ФИЛЬМЫ\Gonchie - 6. (2013). avi\Gonchie-6.(Serija.01).2013.XviD.SATRip.avi
Формат : AVI
Формат/Информация : Audio Video Interleave
Размер файла : 526 Мбайт
Продолжительность : 45 м.
Общий поток : 1633 Кбит/сек
Программа кодирования : VirtualDubModRus 1.5.10.2 (build 2542/release)
Библиотека кодирования : VirtualDubMod build 2542/release
Видео
Идентификатор : 0
Формат : MPEG-4 Visual
Профиль формата : Advanced [email protected]
Параметр BVOP формата : 1
Параметр QPel формата : Нет
Параметр GMC формата : Без точки перехода
Параметр матрицы формата : Default (H.263)
Идентификатор кодека : XVID
Идентификатор кодека/Подсказка : XviD
Продолжительность : 45 м.
Битрейт : 1431 Кбит/сек
Ширина : 720 пикселей
Высота : 400 пикселей
Соотношение сторон : 16:9
Частота кадров : 25,000 кадров/сек
Цветовое пространство : YUV
Субдискретизация насыщенности : 4:2:0
Битовая глубина : 8 бит
Тип развёртки : Прогрессивная
Метод сжатия : С потерями
Бит/(Пиксели*Кадры) : 0.199
Размер потока : 461 Мбайт (88%)
Библиотека кодирования : XviD 1.2.1 (UTC 2008-12-04)
Аудио
Идентификатор : 1
Формат : MPEG Audio
Версия формата : Version 1
Профиль формата : Layer 3
Режим : Joint stereo
Расширение режима : MS Stereo
Идентификатор кодека : 55
Идентификатор кодека/Подсказка : MP3
Продолжительность : 45 м.
Вид битрейта : Постоянный
Битрейт : 192 Кбит/сек
Каналы : 2 канала
Частота : 48,0 КГц
Метод сжатия : С потерями
Размер потока : 61,9 Мбайт (12%)
Выравнивание : Соединение по промежуткам
Продолжительность промежутка : 40 мс. (1,00 видеокадр)
Время предзагрузки промежутка : 504 мс.
Библиотека кодирования : LAME3.99r
Настройки программы : -m j -V 4 -q 2 -lowpass 18.6 -b 192
Download / Скачать

Хотите скачать бесплатно? Зарегистрируйтесь на сайте (ссылка на регистрацию). Pirat.ca - самый быстрый торрент трекер в рунете!

Как скачивать  ·   Что такое торрент  ·   Рейтинг и ограничения

h5n1

Гроза морей

483

Пост 15-Дек-2013 09:46 (спустя 9 часов)

[Q] 

Спасибо!!! Лови бочку зачот...

_________________
«Мы находимся здесь, чтобы внести свой вклад в этот мир. Иначе зачем мы здесь?» S.Jobs
[Профиль]  [ЛС] 

cergo ®

Гроза морей

20033

Пост 15-Дек-2013 09:56 (спустя 9 минут)

[Q] 

462454 зачот...
aa az
[Профиль]  [ЛС] 
Показать сообщения:    
Ответить на тему

Текущее время: Сегодня 04:27

Часовой пояс: GMT + 4



Вы не можете начинать темы
Вы не можете отвечать на сообщения
Вы не можете редактировать свои сообщения
Вы не можете удалять свои сообщения
Вы не можете голосовать в опросах
Вы не можете прикреплять файлы к сообщениям
Вы не можете скачивать файлы

▼ Вниз