ML
     
  Уважаемый Гость!
Вы можете поддержать проект и зарегистрироваться у наших партнеров - онлайн-стратегия MyLands. При регистрации в игре Вы получите код, который сможете активировать после регистрации на pirat.ca и получить 1000 дублонов.

Ваш код:
5f4e94775bc0501caff7b254e79328d304c817d9
 
     

Тайга: Курс Выживания / Сезон: 1 / Серии: 1-12 (Александр Аравин) [2002 г., Приключения, Драма, TVRip]

Ответить на тему
 
Автор
Сообщение

Пост 23-Дек-2013 21:52

[Q] 

crc32

Штурман

-Тайга: Курс Выживания-- Производство: Россия
Жанр: Приключения, Драма
Год выпуска: 2002 г.
Продолжительность: 00:45:00
Российская премьера: 21 октября 2002
Режиссер: Александр Аравин-В ролях: Борис Галкин, Сергей Векслер, Елена Ксенофонтова, Любовь Руденко, Алексей Шевченков, Ксения Давиденко, Кирилл Плетнев, Иван Добронравов-Описание: Тайга - это мелодрама и детектив, социальная драма и приключения... Плохие погодные условия не позволяют небольшим самолетам провинциального аэродрома подняться в воздух. Несколько пассажиров находят летчика готового на незапланированный рейс в город Северск. Среди пассажиров оказывается преступник, похитивший деньги у китайской мафии. Боясь расправы китайцев в Северске, он угрожает пилоту и заставляет его посадить самолет в лесу, в результате чего самолет терпит крушение... Пилот погибает, и пассажиры оказываются один на один с суровой первобытной природой. Каждый из случайных попутчиков обладает определенным жизненным опытом, но ни один не имеет навыков выживания в экстремальных условиях. Вынужденные робинзоны проявляют свои сильные и слабые качества, показывая, кем они являются на самом деле. Время идет, надежды на то, что их найдут, тают с каждым днем. Но терять веру на спасение - значит погибнуть...-
Качество видео: TVRip
Контейнер: AVI
Видео кодек: XviD
Аудио кодек: MP3
Видео: 1997 Кбит/сек, 704*528 (4:3), в 24,000 кадра/сек, 0.224 Бит/Пиксели
Аудио: 224 Кбит/сек, 44.1 КГц, 2 канала, MPEG AUDIO (MP3)
Cубтитры: отсутствуют
Общее
Полное имя : G:\Films\тайга\Тайга1.avi
Формат : AVI
Формат/Информация : Audio Video Interleave
Размер файла : 692 Мбайт
Продолжительность : 43 м.
Общий поток : 2234 Кбит/сек
Программа кодирования : Lavf52.1.0
Видео
Идентификатор : 0
Формат : xvid
Идентификатор кодека : xvid
Продолжительность : 43 м.
Битрейт : 1997 Кбит/сек
Ширина : 704 пикселя
Высота : 528 пикселей
Соотношение сторон : 4:3
Частота кадров : 24,000 кадра/сек
Бит/(Пиксели*Кадры) : 0.224
Размер потока : 619 Мбайт (89%)
Аудио
Идентификатор : 1
Формат : MPEG Audio
Версия формата : Version 1
Профиль формата : Layer 3
Режим : Joint stereo
Расширение режима : MS Stereo
Идентификатор кодека : 55
Идентификатор кодека/Подсказка : MP3
Продолжительность : 43 м.
Вид битрейта : Постоянный
Битрейт : 224 Кбит/сек
Каналы : 2 канала
Частота : 44,1 КГц
Метод сжатия : С потерями
Размер потока : 69,4 Мбайт (10%)
Выравнивание : Соединение по промежуткам
Продолжительность промежутка : 26 мс. (0,63 видеокадр)
Библиотека кодирования : LAME3.97 (beta)
Взят на телеканале "Россия 1
Перекодирован с формата FLV в AVI
Download / Скачать

Хотите скачать бесплатно? Зарегистрируйтесь на сайте (ссылка на регистрацию). Pirat.ca - самый быстрый торрент трекер в рунете!

Как скачивать  ·   Что такое торрент  ·   Рейтинг и ограничения

Пост 23-Дек-2013 22:18 (спустя 25 минут)

Топик был перенесен из форума Отечественные сериалы (Трюм) в форум Отечественные сериалы
kugesan
 
Показать сообщения:    
Ответить на тему

Текущее время: Сегодня 15:37

Часовой пояс: GMT + 4



Вы не можете начинать темы
Вы не можете отвечать на сообщения
Вы не можете редактировать свои сообщения
Вы не можете удалять свои сообщения
Вы не можете голосовать в опросах
Вы не можете прикреплять файлы к сообщениям
Вы не можете скачивать файлы

▼ Вниз