ML
     
  Уважаемый Гость!
Вы можете поддержать проект и зарегистрироваться у наших партнеров - онлайн-стратегия MyLands. При регистрации в игре Вы получите код, который сможете активировать после регистрации на pirat.ca и получить 1000 дублонов.

Ваш код:
ba41f7961e0b4717aed6a401d955262223b8f6c4
 
     

Проснемся вместе / Сезон: 1 / Серии: 1-24 из 24 (Юрий Лагута, Игорь Холодков) [2012 г., мелодрама, SATRip]

Ответить на тему
 
Автор
Сообщение

Пост 28-Дек-2013 12:28

[Q] 

vic-99

Лоцман

-Проснемся вместе (1-24 серии)-- Производство: Россия
Жанр: мелодрама
Год выпуска: 2012 г.
Продолжительность: 24 x 00:45:00
Российская премьера: 8 октября 2012
Режиссер: Юрий Лагута, Игорь Холодков-В ролях: Юлия Галкина, Татьяна Лянник, Мария Бортник, Иван Рыжиков, Андрей Носков, Сергей Гурьев, Дмитрий Ермак, Марк Муравьёв, Сергей Кагаков-Описание: Мошенница Лена пытается вытащить отца из СИЗО, куда тот попал по ее вине. У врача Юли трещит по швам внешне благополучный брак. Топ-менеджер Вика разрывается между карьерой, ребенком и женатым любовником… Они взрослели в одно и то же время — в лихие девяностые, когда любить вдруг стало не модно. Секс — модно. Цинизм — модно. А любовь — как-то не очень…
У каждой из героинь свои проблемы. Вика переживает, потому что считает себя плохой матерью, Лену мучает совесть из-за того, что по ее вине отцу светит тюремный срок, а Юлю гнетет то, что она изменяет мужу. Однако, претерпевая муки совести, девушки продолжают идти тем же путем. История каждой из них — это история о том, как в чехарде целей, амбиций и комплексов «столичных штучек» не пробежать мимо любви, без которой всё в один прекрасный момент надоедает — и деньги, и карьера, и аферы, и домашний очаг с равнодушным мужем. И тогда все летит в тартарары… И начинается самое интересное.-Качество видео: SATRip
Контейнер: AVI
Видео кодек: XviD
Аудио кодек: MP3
Видео: 720x400 (1.80:1), 25 fps, XviD build 50 ~1500 kbps avg, 0.21 bit/pixel
Аудио: 48 kHz, MPEG Layer 3, 2 ch, ~128.00 kbps avg
Cубтитры: отсутствуют
Формат : AVI
Формат/Информация : Audio Video Interleave
Размер файла : 543 Мбайт
Продолжительность : 46 м.
Общий поток : 1639 Кбит/сек
Библиотека кодирования : VirtualDub build 32706/release
Видео
Идентификатор : 0
Формат : MPEG-4 Visual
Профиль формата : Advanced [email protected]
Параметр BVOP формата : 2
Параметр QPel формата : Нет
Параметр GMC формата : Без точки перехода
Параметр матрицы формата : Default (MPEG)
Идентификатор кодека : XVID
Идентификатор кодека/Подсказка : XviD
Продолжительность : 46 м.
Битрейт : 1501 Кбит/сек
Ширина : 720 пикселей
Высота : 400 пикселей
Соотношение сторон : 16:9
Частота кадров : 25,000 кадров/сек
Цветовое пространство : YUV
Субдискретизация насыщенности : 4:2:0
Битовая глубина : 8 бит
Тип развёртки : Прогрессивная
Метод сжатия : С потерями
Бит/(Пиксели*Кадры) : 0.208
Размер потока : 498 Мбайт (92%)
Библиотека кодирования : XviD 1.2.1 (UTC 2008-12-04)
Аудио
Идентификатор : 1
Формат : MPEG Audio
Версия формата : Version 1
Профиль формата : Layer 3
Режим : Joint stereo
Расширение режима : MS Stereo
Идентификатор кодека : 55
Идентификатор кодека/Подсказка : MP3
Продолжительность : 46 м.
Вид битрейта : Постоянный
Битрейт : 128 Кбит/сек
Каналы : 2 канала
Частота : 48,0 КГц
Метод сжатия : С потерями
Размер потока : 42,5 Мбайт (8%)
Выравнивание : Разделение по промежуткам
Продолжительность промежутка : 40 мс. (1,00 видеокадр)
Время предзагрузки промежутка : 500 мс.
Download / Скачать

Хотите скачать бесплатно? Зарегистрируйтесь на сайте (ссылка на регистрацию). Pirat.ca - самый быстрый торрент трекер в рунете!

Как скачивать  ·   Что такое торрент  ·   Рейтинг и ограничения

Пост 28-Дек-2013 13:20 (спустя 52 минуты)

Топик был перенесен из форума Отечественные сериалы (Трюм) в форум Отечественные сериалы
kugesan
 

vr33

Юнга

Пост 21-Апр-2014 22:46 (спустя 3 месяца 24 дня)

[Q] 

Очень хороший сериал! Необычайное сочетание юмора, сложного сюжета и напряженных моментов. Не знал, что наши тек могут снимать. Сериал выбивается из кучи однотипных и унылых фильмов.
[Профиль]  [ЛС] 
Показать сообщения:    
Ответить на тему

Текущее время: Сегодня 14:49

Часовой пояс: GMT + 4



Вы не можете начинать темы
Вы не можете отвечать на сообщения
Вы не можете редактировать свои сообщения
Вы не можете удалять свои сообщения
Вы не можете голосовать в опросах
Вы не можете прикреплять файлы к сообщениям
Вы не можете скачивать файлы

▼ Вниз