ML
     
  Уважаемый Гость!
Вы можете поддержать проект и зарегистрироваться у наших партнеров - онлайн-стратегия MyLands. При регистрации в игре Вы получите код, который сможете активировать после регистрации на pirat.ca и получить 1000 дублонов.

Ваш код:
0fcd44bd35319f69313aa6e53b31c51cbff1c942
 
     

Особенности национальной маршрутки (Газзила) / Серии: 1-4 из 4 (Петр Степин) [2013 г., Комедия, мелодрама, SATRip]

Ответить на тему
 
Автор
Сообщение

Пост 02-Янв-2014 00:03

[Q] 

cergo

Гроза морей

-Особенности национальной маршрутки(Газзила)Серии: 1-4 из 4-- Производство: Россия, Эверест Фильм
Жанр: Комедия, мелодрама
Год выпуска: 2013 г.
Продолжительность: 4 x ~ 00:44:00
Режиссер: Петр Степин-В ролях: Иван Стебунов, Ульяна Лаптева, Кристина Пакарина, Максим Самарский, Екатерина Федулова, Евгений Леонов-Гладышев, Василий Мищенко, Екатерина Копанова, Алеся Пуховая, Иван Федотов, Вячеслав Гришечкин, Татьяна Орлова, Виталий Максимов, Владимир Дубровский (II), Алексей Коваль, Игорь Юртаев, Вячеслав Глушков, Сергей Померанцев, Денис Ясик, Николай Лунин (II), Иван Руденко, Александр Числов, Софья Елфимова-Описание: Кошмар в явь современного человека - это добраться до места на маршрутке. Тебя ласково прижмут к стеклу макияжем, вытащат носовой платок с заначкой, так еще и вспомнят твою маму, нарисуют точный портрет с эпитетами. Такого праздника врагу не пожелаешь в период проигрыша. Сельский люд с авоськами, а то и козами, городские, обозленные на все, что дышит, школьники рвут чулки дамам молниями и липучками от портфелей, с тыла крики "Остановите!", и начинается тестомешалка с присыпками мата и специями тычков в спину. Сумрак не вечен, бывает и в маршрутке солнечно. Радушные пассажиры, неожиданные встречи, даже любовь. Дорога извилиста, асфальт скребет покрышки, все до курьезов смешно. Водитель вообще отдельный разговор: говорит на непонятном диалекте, это особенности национальности или усталость, настроение, как у беременной, непредсказуемые гормоны прыгают вместе с переполненным салоном маршрутки. Небольшой автобус с начинкой из шуток, злости, радости и слез мчится, игнорируя светофоры и ямы по необъятным просторам улиц.-
Качество видео: SATRip
Контейнер: AVI
Видео кодек: DivX
Аудио кодек: MP3
Видео: 704x384 (1.83:1), 25 fps, DivX Codec 6.8.5/6.9.1 ~1850 kbps avg, 0.27 bit/pixel
Аудио: 48 kHz, MPEG Layer 3, 2 ch, ~128.00 kbps avg
Cубтитры: отсутствуют
Общее
Полное имя : D:\Архив\ФИЛЬМЫ\Osobennosti.nacionalnoj.marshrutky.2013.DivX.SATRip\Osobennosti.nacionalnoj.marshrutky.(1.serija.iz.4).2013.DivX.SATRip.avi
Формат : AVI
Формат/Информация : Audio Video Interleave
Размер файла : 624 Мбайт
Продолжительность : 43 м.
Общий поток : 1989 Кбит/сек
Библиотека кодирования : Boilsoft AVI tool build 1/release
Видео
Идентификатор : 0
Формат : MPEG-4 Visual
Параметр BVOP формата : 1
Параметр QPel формата : Нет
Параметр GMC формата : Без точки перехода
Параметр матрицы формата : Default (H.263)
Режим смешивания : Сжатый битовый поток
Идентификатор кодека : DX50
Идентификатор кодека/Подсказка : DivX 5
Продолжительность : 43 м.
Битрейт : 1851 Кбит/сек
Ширина : 704 пикселя
Высота : 384 пикселя
Соотношение сторон : 1,85:1
Частота кадров : 25,000 кадров/сек
Цветовое пространство : YUV
Субдискретизация насыщенности : 4:2:0
Битовая глубина : 8 бит
Тип развёртки : Прогрессивная
Метод сжатия : С потерями
Бит/(Пиксели*Кадры) : 0.274
Размер потока : 581 Мбайт (93%)
Библиотека кодирования : DivX 6.8.5 (UTC 2009-08-20)
Аудио
Идентификатор : 1
Формат : MPEG Audio
Версия формата : Version 1
Профиль формата : Layer 3
Режим : Joint stereo
Расширение режима : MS Stereo
Идентификатор кодека : 55
Идентификатор кодека/Подсказка : MP3
Продолжительность : 43 м.
Вид битрейта : Постоянный
Битрейт : 128 Кбит/сек
Каналы : 2 канала
Частота : 48,0 КГц
Метод сжатия : С потерями
Размер потока : 40,2 Мбайт (6%)
Выравнивание : Разделение по промежуткам
Продолжительность промежутка : 40 мс. (1,00 видеокадр)
Время предзагрузки промежутка : 500 мс.
Download / Скачать

Хотите скачать бесплатно? Зарегистрируйтесь на сайте (ссылка на регистрацию). Pirat.ca - самый быстрый торрент трекер в рунете!

Как скачивать  ·   Что такое торрент  ·   Рейтинг и ограничения

Пост 02-Янв-2014 00:51 (спустя 47 минут)

Топик был перенесен из форума Отечественные сериалы (Трюм) в форум Отечественные сериалы
kugesan
 

kudrjavy

Флибустьер

Пост 02-Янв-2014 01:07 (спустя 1 час 3 минуты)

[Q] 

Спасибо за труды!))) Спасибо!!!

_________________
Девушки-как печеньки: ломаются,пока не намокнут...
[Профиль]  [ЛС] 

cergo ®

Гроза морей

20043

Пост 02-Янв-2014 02:04 (спустя 57 минут)

[Q] 

470272Спасибо за труды!)))
aa az
[Профиль]  [ЛС] 

valeryz777

Гроза морей

896

Пост 02-Янв-2014 07:35 (спустя 5 часов)

[Q] 

Как это близко и знакомо! Буду качать!!! Лови бочку

_________________
«Festina lente» что означает «Поспешай медленно»
[Профиль]  [ЛС] 

ALEKSANDR_1968

Морской Волк

Пост 02-Янв-2014 12:54 (спустя 5 часов)

[Q] 

СПАСИБО!ГЛЯНЕМ,БЛАГО ВЫХОДНЫЕ.Качаю,присоединяюсь к раздаче.
[Профиль]  [ЛС] 

дед_Мазай

Корсар

210

Пост 02-Янв-2014 13:56 (спустя 1 час 2 минуты)

[Q] 

как то не очень. я думал ржака будет дика в стиле равшана и джумшута. и обломался.

_________________
[Профиль]  [ЛС] 

Коммунист

Морской Волк

Пост 02-Янв-2014 14:55 (спустя 58 минут)

[Q] 

Ребята, такую фигню ещё кто-то смотрит?
[Профиль]  [ЛС] 

sevensv

Легенда

2591

Пост 07-Янв-2014 10:03 (спустя 4 дня)

[Q] 

Фильм так себе... Раздающему респект! Лови бочку
[Профиль]  [ЛС] 

stasikva52

Лоцман

Пост 26-Фев-2014 22:40 (спустя 1 месяц 19 дней)

[Q] 

Раздающему респект! Лови бочку Не киношедевр, но соответствует высказыванию - "Пипел хавает!"
[Профиль]  [ЛС] 
Показать сообщения:    
Ответить на тему

Текущее время: Сегодня 02:12

Часовой пояс: GMT + 4



Вы не можете начинать темы
Вы не можете отвечать на сообщения
Вы не можете редактировать свои сообщения
Вы не можете удалять свои сообщения
Вы не можете голосовать в опросах
Вы не можете прикреплять файлы к сообщениям
Вы не можете скачивать файлы

▼ Вниз