ML
     
  Уважаемый Гость!
Вы можете поддержать проект и зарегистрироваться у наших партнеров - онлайн-стратегия MyLands. При регистрации в игре Вы получите код, который сможете активировать после регистрации на pirat.ca и получить 1000 дублонов.

Ваш код:
500cb7bd8d2cec9a8aba647a87ce41c4b76f06bd
 
     

Синдром Шахматиста / Серии: 1-4 из 4 (Карен Адамян) [2014 г., боевик, DVDRip]

Ответить на тему
 
Автор
Сообщение

Пост 08-Мар-2014 13:17

[Q] 

cergo

Гроза морей

-Синдром ШахматистаСерии: 1-4 из 4-- Производство: Россия, Berg Sound
Жанр: боевик
Год выпуска: 2014 г.
Продолжительность: 4 х ~ 00:46:00
Дата выхода DVD: 6 февраля 2014, «Мистерия Звука»
Режиссер: Карен Адамян-В ролях: Юрий Кормушин, Марина Вайнбранд, Влад Канопка, Анастасия Сметанина, Олег Шкловский, Павел Кузьмин, Вячеслав Кулаков, Михаил Хмуров, Леонид Евтифьев, Владимир Стеклов-Описание: В российском городе Торбинске происходит цепь загадочных убийств среди криминальных авторитетов. По слухам и разговорам за этими убийствами стоит загадочная личность «Шахматист», но никто его не знает и никогда не видел. И полиция и весь криминальный мир Торбинска ищут этого самого «Шахматиста». В это же время в город приезжает Влад Артемьев - преподаватель истории Востока и мастер восточных боевых искусств. В силу ряда причин подозрение падает на него. Чтобы доказать свою невиновность и найти истинного «Шахматиста» Влад скрывается и начинает собственные поиски. В этом ему помогают студентка Кристина и компьютерный гений Ульяна. В результате многочисленных перипетий Владу удается найти и обезвредить «Шахматиста» и тем самым доказать свою непричастность к происходящим в городе беспорядкам.-
Качество видео: DVDRip
Контейнер: AVI
Видео кодек: XviD
Аудио кодек: AC3
Видео: 720x400 (1.80:1), 23.976 fps, XviD MPEG-4 ~1314 kbps avg, 0.19 bit/pixel
Аудио: 48 kHz, AC3 Dolby Digital, 2/0 (L,R) ch, ~192 kbps
Cубтитры: отсутствуют
Общее
Полное имя : D:\Архив\ФИЛЬМЫ\Sindrom Shahmatista\1 серия.avi
Формат : AVI
Формат/Информация : Audio Video Interleave
Размер файла : 501 Мбайт
Продолжительность : 46 м.
Общий поток : 1516 Кбит/сек
Программа кодирования : VirtualDubMod 1.5.10.3 | www.virtualdub-fr.org || (build 2550/release)
Библиотека кодирования : VirtualDubMod build 2550/release
Видео
Идентификатор : 0
Формат : MPEG-4 Visual
Профиль формата : Advanced [email protected]
Параметр BVOP формата : 2
Параметр QPel формата : Нет
Параметр GMC формата : Без точки перехода
Параметр матрицы формата : Default (MPEG)
Режим смешивания : Сжатый битовый поток
Идентификатор кодека : XVID
Идентификатор кодека/Подсказка : XviD
Продолжительность : 46 м.
Битрейт : 1315 Кбит/сек
Ширина : 720 пикселей
Высота : 400 пикселей
Соотношение сторон : 16:9
Частота кадров : 23,976 кадра/сек
Цветовое пространство : YUV
Субдискретизация насыщенности : 4:2:0
Битовая глубина : 8 бит
Тип развёртки : Прогрессивная
Метод сжатия : С потерями
Бит/(Пиксели*Кадры) : 0.190
Размер потока : 435 Мбайт (87%)
Библиотека кодирования : XviD 1.2.1 (UTC 2008-12-04)
Аудио
Идентификатор : 1
Формат : AC-3
Формат/Информация : Audio Coding 3
Расширение режима : CM (complete main)
Параметр Endianness формата : Big
Идентификатор кодека : 2000
Продолжительность : 46 м.
Вид битрейта : Постоянный
Битрейт : 192 Кбит/сек
Каналы : 2 канала
Расположение каналов : Front: L R
Частота : 48,0 КГц
Битовая глубина : 16 бит
Метод сжатия : С потерями
Размер потока : 63,5 Мбайт (13%)
Выравнивание : Разделение по промежуткам
Продолжительность промежутка : 42 мс. (1,00 видеокадр)
Время предзагрузки промежутка : 500 мс.
Download / Скачать

Хотите скачать бесплатно? Зарегистрируйтесь на сайте (ссылка на регистрацию). Pirat.ca - самый быстрый торрент трекер в рунете!

Как скачивать  ·   Что такое торрент  ·   Рейтинг и ограничения

Пост 08-Мар-2014 21:14 (спустя 7 часов)

Топик был перенесен из форума Отечественные сериалы (Трюм) в форум Отечественные сериалы
erchine
 

viktor41

Шкипер

Пост 12-Мар-2014 23:47 (спустя 4 дня)

[Q] 

cergo, Спасибо ! Автору респект!!! Всем качать!!!
[Профиль]  [ЛС] 

cergo ®

Гроза морей

20035

Пост 13-Мар-2014 17:21 (спустя 17 часов)

[Q] 

506318cergo, Спасибо !
aa az
[Профиль]  [ЛС] 

lkas1010

Корсар

Пост 16-Мар-2014 18:30 (спустя 3 дня)

[Q] 

Нормальный сериал.Спасибо! Автору респект!!!
[Профиль]  [ЛС] 
Показать сообщения:    
Ответить на тему

Текущее время: Сегодня 01:48

Часовой пояс: GMT + 4



Вы не можете начинать темы
Вы не можете отвечать на сообщения
Вы не можете редактировать свои сообщения
Вы не можете удалять свои сообщения
Вы не можете голосовать в опросах
Вы не можете прикреплять файлы к сообщениям
Вы не можете скачивать файлы

▼ Вниз