ML
     
  Уважаемый Гость!
Вы можете поддержать проект и зарегистрироваться у наших партнеров - онлайн-стратегия MyLands. При регистрации в игре Вы получите код, который сможете активировать после регистрации на pirat.ca и получить 1000 дублонов.

Ваш код:
ea554e7ed3eacceeae87a8b30a9de3f086c18a84
 
     

Курьерский особой важности Серии: 1-4 из 4 (Олег Фомин) [2013 г., боевик, приключения, DVDRip]

Ответить на тему
 
Автор
Сообщение

Пост 10-Мар-2014 17:46

[Q] 

vasilich619

Флибустьер

-Курьерский особой важности -- Производство: Россия, Студия Стар-Т, Талан
Жанр: боевик, приключения
Год выпуска: 2013 г.
Продолжительность: 02:56:42
Российская премьера: 26 октября 2013
Дата выхода DVD: 13 февраля 2014, «Компания WWW.RECORDS»
Режиссер: Олег Фомин-В ролях: Семён Шкаликов, Алексей Фаддеев, Гурам Баблишвили, Виктория Полторак, Константин Демидов (II), Александр Бобров (IV), Владимир Яворский, Леонид Тимцуник, Вадим Астафьев, Михаил Водзуми, Павел Абдалов, Олег Фомин, Кирилл Козаков, Алик Гульханов, Ведат Меметов, Фатих Шафиков, Олег Доброван, Дмитрий Горевой, Юрий Маслак-Описание: Россия, 1916 год. Идет Первая мировая война. Капитан русской контрразведки Василий Щепкин со своей группой занимается выявлением вражеской агентуры в столице Российской империи. В состав группы входят, кроме него, еще трое: ротмистр Гоглидзе, прапорщик Белкин и вольнонаемный сотрудник Диана Холодова.-
Качество видео: DVDRip
Контейнер: AVI
Видео кодек: XviD
Аудио кодек: AC3
Видео: MPEG4, XviD, 720x400 (16:9), 23.976 fps, 1 481 Kbps (0.214 bit/pixel)
Аудио: Русский, AC3, 48.0 KHz, 2 ch, 96.0 Kbps, CBR
Cубтитры: отсутствуют
General
Complete name : H:\СЕРИАЛЫ\Курьерский особой важности 1 - 4 серии из 4 (2013) DVDRip\Курьерский особой важности\1 серия.avi
Format : AVI
Format/Info : Audio Video Interleave
File size : 501 MiB
Duration : 44mn 10s
Overall bit rate : 1 586 Kbps
Writing library : VirtualDubMod build 2550/release
Video
ID : 0
Format : MPEG-4 Visual
Format profile : Streaming [email protected]
Format settings, BVOP : Yes
Format settings, QPel : No
Format settings, GMC : No warppoints
Format settings, Matrix : Default (MPEG)
Muxing mode : Packed bitstream
Codec ID : XVID
Codec ID/Hint : XviD
Duration : 44mn 10s
Bit rate : 1 481 Kbps
Width : 720 pixels
Height : 400 pixels
Display aspect ratio : 16/9
Frame rate : 23.976 fps
Resolution : 24 bits
Colorimetry : 4:2:0
Scan type : Progressive
Bits/(Pixel*Frame) : 0.214
Stream size : 468 MiB (93%)
Writing library : XviD 1.2.1 (UTC 2008-12-04)
Audio
ID : 1
Format : AC-3
Format/Info : Audio Coding 3
Codec ID : 2000
Duration : 44mn 10s
Bit rate mode : Constant
Bit rate : 96.0 Kbps
Channel(s) : 2 channels
Channel positions : L R
Sampling rate : 48.0 KHz
Stream size : 30.3 MiB (6%)
Alignment : Split accross interleaves
Interleave, duration : 42 ms (1.00 video frame)
Interleave, preload duration : 500 ms
Download / Скачать

Хотите скачать бесплатно? Зарегистрируйтесь на сайте (ссылка на регистрацию). Pirat.ca - самый быстрый торрент трекер в рунете!

Как скачивать  ·   Что такое торрент  ·   Рейтинг и ограничения

Dysy

Морской Волк

Пост 10-Мар-2014 18:23 (спустя 37 минут)

[Q] 

Лови бочку будем смотреть , только встань на раздачу
[Профиль]  [ЛС] 

vasilich619 ®

Флибустьер

4713

Пост 10-Мар-2014 18:55 (спустя 31 минута)

[Q] 

Так, на раздаче.

_________________
Всем моим ошибкам есть оправдание: я живу в первый раз!
[Профиль]  [ЛС] 

Пост 10-Мар-2014 19:09 (спустя 13 минут)

Топик был перенесен из форума Отечественные сериалы (Трюм) в форум Отечественные сериалы
kugesan
 

veter510

Флибустьер

Пост 11-Мар-2014 02:52 (спустя 7 часов)

[Q] 

Пора завязывать...линк прочитал как "Касперский особой важности", решил, что антивирусник.....
[Профиль]  [ЛС] 

Pana

Морской Волк

Пост 11-Мар-2014 09:59 (спустя 7 часов)

[Q] 

Закинул рому Спасибо!!!
[Профиль]  [ЛС] 

vadimtitoff

Лоцман

Пост 11-Мар-2014 22:10 (спустя 12 часов)

[Q] 

Хорошо что в начале этого "шедевра", есть краткое содержание этого "шедевра", и смело можно удалять в седьмое пекло, гав.....о самое настоящее!
[Профиль]  [ЛС] 

okorm

889

Пост 04-Апр-2014 11:44 (спустя 23 дня)

[Q] 

Раздающему респект!
[Профиль]  [ЛС] 

ss80

Флибустьер

36

Пост 20-Май-2014 20:50 (спустя 1 месяц 16 дней)

[Q] 

Раздающему респект! Спасибо!!!
[Профиль]  [ЛС] 
Показать сообщения:    
Ответить на тему

Текущее время: Сегодня 12:14

Часовой пояс: GMT + 4



Вы не можете начинать темы
Вы не можете отвечать на сообщения
Вы не можете редактировать свои сообщения
Вы не можете удалять свои сообщения
Вы не можете голосовать в опросах
Вы не можете прикреплять файлы к сообщениям
Вы не можете скачивать файлы

▼ Вниз