ML
     
  Уважаемый Гость!
Вы можете поддержать проект и зарегистрироваться у наших партнеров - онлайн-стратегия MyLands. При регистрации в игре Вы получите код, который сможете активировать после регистрации на pirat.ca и получить 1000 дублонов.

Ваш код:
c89b4b6523eaac3173e9a9c062ac1a19db575961
 
     

Гончие / Первый сезон / Серии: 1-12 из 12 (Вячеслав Лавров) [2006 г., детектив, боевик, DVD9, PAL]

Ответить на тему
 
Автор
Сообщение

Пост 13-Мар-2014 12:38

[Q] 

marsel1620

Шкипер

-Гончие-- Производство: ООО "Форвард-фильм" в сотрудничестве с ООО "Студия "Панорама"
Жанр: детектив, боевик
Год выпуска: 2006 г.
Продолжительность: 00:46:00 серия
Российская премьера: 13 августа 2007 года. НТВ.
Дата выхода DVD: 29 сентября 2011 года
Режиссер: Вячеслав Лавров-В ролях: Максим Фомин, Алексей Титков, Эмилия Спивак, Борис Хвошнянский, Владимир Абросимов, Борис Войцеховский, Геннадий Алимпиев, Алена Баркова, Владимир Бирюков, Андрей Гульнев-Описание: Оперуполномоченный уголовного розыска Максим Градов плохо уживается с начальством, которое безмерно раздражает самоуправство подчиненного, во имя справедливости способного нарушить все мыслимые и немыслимые должностные инструкции и даже сам закон. В результате, Максиму грозит увольнение из органов, и дальнейшие перспективы на будущее крайне туманны: Но тут к его непосредственному начальнику является старый приятель, подполковник Великанов по прозвищу "Горыныч", и берет не в меру принципиального оперативника под свое крыло. Так, мечтавший о карьере настоящего сыскаря Градов находит новое место работы, которая поначалу показалась ему невыносимо скучной... Однако очень скоро ему приходится убедиться в ошибочности своего первого впечатления. Служба в отделе Великанова на поверку оказалась куда беспокойнее и значительно опасней того, чем Градов занимался раньше. Маленький коллектив отважных и опытных профессионалов под началом Горыныча занимается розыском самых опасных представителей криминального мира - беглых заключенных...
Ловить придется и беглянок. Последний побег из женской колонии произошел более двадцати лет назад и группа «гончих» сталкивается с трудностями отсутствия опыта в поимке женщин-приступниц. И не вся дичь на охоте является только дичью…-
Качество видео: DVD9
Контейнер: DVD Video
Видео кодек: MPEG2
Аудио кодек: AC3
Видео: PAL 4:3 (720x576) VBR. Битрейт 5092 Кбит/сек. Частота кадров: 25,000 кадров/сек
Формат DVD: PAL
Аудио: AC3, 2/0 ch, 192Kbps, Delay 0 mSec (Dolby AC3, 2 ch). Частота: 48,0 КГц
Cубтитры: отсутствуют
Авторы сценария Максим Есаулов, Андрей Романов; продюсеры Андрей Каморин, Ада Ставиская; оператор-постановщик Леонид Васильев; композитор Евгений Федоров; художники-постановщики Юрий Багаев и Дмитрий Гладченко.
Сериал мне понравился неполохим сценарием (учитывая то, что один из авторов, служил в милиции и не понаслышке знает всю подноготную «культурного» Питера). Реплики очень запоминающиеся. Несмотря на немного деревянную игру актёров и повторения сюжета из серии к серии, но это не мешает нам наслаждаться просмотров данного творения.
Из наиболее запоминающихся героев, выделяется вечный побигун Вася, «Горыныч», его жена «Мадлен» и компьютерщик Кевин. также интересно следить как молодой опер Максим с каждым новым делом приобретает новые знание и становится всё более опытным.
В заключении хотелось бы сказать, что данное блюдо российского кинопрома получилось вполне удобоваримым. Хотя первый сезон намного интересней последующих…
Общее
Полное имя : G:\Films\Gonchie_DVD9\VTS_01_1.VOB
Формат : MPEG-PS
Размер файла : 1024 Мбайт
Продолжительность : 26 м.
Режим общего битрейта : Переменный
Общий поток : 5392 Кбит/сек
Библиотека кодирования : encoded by TMPGEnc DVD Author 3 Version. 3.0.8.158
Видео
Идентификатор : 224 (0xE0)
Формат : MPEG Video
Версия формата : Version 2
Профиль формата : [email protected]
Параметр BVOP формата : Да
Параметр матрицы формата : Выборочная
Параметр GOP формата : Variable
Продолжительность : 26 м.
Вид битрейта : Переменный
Битрейт : 5092 Кбит/сек
Максимальный битрейт : 4473 Кбит/сек
Ширина : 720 пикселей
Высота : 576 пикселей
Соотношение сторон : 4:3
Частота кадров : 25,000 кадров/сек
Стандарт вещания : PAL
Цветовое пространство : YUV
Субдискретизация насыщенности : 4:2:0
Битовая глубина : 8 бит
Тип развёртки : Чересстрочная
Порядок развёртки : Нижнее поле первое
Метод сжатия : С потерями
Бит/(Пиксели*Кадры) : 0.491
Временной код первого кадра : 00:00:00:00
Оригинал временного кода : Group of pictures header
Размер потока : 967 Мбайт (94%)
Закодированный размер потока оригинала : encoded by TMPGEnc DVD Author 3 Version. 3.0.8.158
Библиотека кодирования : TMPGEnc DVD Author 3 Version. 3.0.8.158
Основные цвета : BT.601 PAL
Характеристики трансфера : BT.470 System B, BT.470 System G
Коэффициенты матрицы : BT.601
Аудио
Идентификатор : 189 (0xBD)-128 (0x80)
Формат : AC-3
Формат/Информация : Audio Coding 3
Расширение режима : CM (complete main)
Параметр Endianness формата : Big
Режим смешивания : DVD-Video
Продолжительность : 26 м.
Вид битрейта : Постоянный
Битрейт : 192 Кбит/сек
Каналы : 2 канала
Расположение каналов : Front: L R
Частота : 48,0 КГц
Битовая глубина : 16 бит
Метод сжатия : С потерями
Размер потока : 36,5 Мбайт (4%)
Title:
Size: 7.73 Gb ( 8 103 146 KBytes ) - DVD-9
Enabled regions: 1, 2, 3, 4, 5, 6, 7, 8
VTS_01 :
Play Length: 09:46:00
Video: PAL 4:3 (720x576) VBR
Audio:
Not specified (Dolby AC3, 2 ch)
VTS_02 :
Play Length: 00:00:24
Video: PAL 4:3 (720x576) VBR
Audio:
Not specified (Dolby AC3, 2 ch)
Menu Video:
PAL 4:3 (720x576) VBR
Menu Audio:
Not specified (Dolby AC3, 2 ch)
Menu Subtitles:
Not specified
Menu Language Unit :
Root Menu







Download / Скачать

Хотите скачать бесплатно? Зарегистрируйтесь на сайте (ссылка на регистрацию). Pirat.ca - самый быстрый торрент трекер в рунете!

Как скачивать  ·   Что такое торрент  ·   Рейтинг и ограничения

Показать сообщения:    
Ответить на тему

Текущее время: Сегодня 22:33

Часовой пояс: GMT + 4



Вы не можете начинать темы
Вы не можете отвечать на сообщения
Вы не можете редактировать свои сообщения
Вы не можете удалять свои сообщения
Вы не можете голосовать в опросах
Вы не можете прикреплять файлы к сообщениям
Вы не можете скачивать файлы

▼ Вниз