ML
     
  Уважаемый Гость!
Вы можете поддержать проект и зарегистрироваться у наших партнеров - онлайн-стратегия MyLands. При регистрации в игре Вы получите код, который сможете активировать после регистрации на pirat.ca и получить 1000 дублонов.

Ваш код:
0ea1bf889af42fca5f67d0a391efb3400850ad7c
 
     

Позднее раскаяние / Серии: 1-16 из 16 (Оксана Байрак) [2013 г., Мелодрама, драма, SATRip]

Ответить на тему
 
Автор
Сообщение

Пост 03-Апр-2014 00:43

[Q] 

GMCJimmy

Легенда

-Позднее раскаяние-- Производство: Film.ua Production , Украина
Жанр: Мелодрама, драма
Год выпуска: 2013 г.
Продолжительность: ~00:44:00 (серия)
Режиссер: Оксана Байрак-В ролях: Артем Крестников, Марина Ягодкина, Андрей Косташ, Яна Глущенко, Оксана Коляденко, Михаил Пшеничный, Светлана Косолапова, Алёша Барбинов, Сергей Комаров (II), Лариса Удовиченко, Анна Синякина, Регина Мянник, Олег Масленников-Войтов, Максим Дрозд, Игорь Верник, Дарина Лобода, Никита Зверев, Наталия Васько, Ада Роговцева, Дарья Волга-Описание: Семья Милы и Кости держится исключительно благодаря двум дочерям, Лике и Кире. Мила давно сняла со счетов мужа, который не может обеспечить семью, отдав предпочтение предприимчивому любовнику Томашу. А вот жизнь Анны и ее сына Сергея подчинена ожиданию чуда – не смотря на то, что ее муж уже несколько лет числится пропавшим без вести, Анна все еще верит, что он вернется из Афганистана. И так непростая жизнь двух семей внезапно запутывается еще больше, когда оказывается, что у Киры и Сергея будет ребенок, ведь влюбленным всего по 16 лет…-Качество видео: SATRip
Контейнер: AVI
Видео кодек: XviD
Аудио кодек: MP3
Видео: 720x400, 1444 kbps ,25.00fps , 0.201 Бит/Пиксел
Аудио: 192 kbps , 2 ch , 48.0 kHz
Cубтитры: отсутствуют
Формат : AVI
Формат/Информация : Audio Video Interleave
Размер файла : 595 Мбайт
Продолжительность : 50 м.
Общий поток : 1645 Кбит/сек
Программа кодирования : VirtualDubModRus 1.5.10.2 (build 2542/release)
Библиотека кодирования : VirtualDubMod build 2542/release
Видео
Идентификатор : 0
Формат : MPEG-4 Visual
Профиль формата : Advanced [email protected]
Параметр BVOP формата : 1
Параметр QPel формата : Нет
Параметр GMC формата : Без точки перехода
Параметр матрицы формата : Default (H.263)
Идентификатор кодека : XVID
Идентификатор кодека/Подсказка : XviD
Продолжительность : 50 м.
Битрейт : 1444 Кбит/сек
Ширина : 720 пикселей
Высота : 400 пикселей
Соотношение сторон : 16:9
Частота кадров : 25,000 кадров/сек
Цветовое пространство : YUV
Субдискретизация насыщенности : 4:2:0
Битовая глубина : 8 бит
Тип развёртки : Прогрессивная
Метод сжатия : С потерями
Бит/(Пиксели*Кадры) : 0.201
Размер потока : 522 Мбайт (88%)
Библиотека кодирования : XviD 1.2.1 (UTC 2008-12-04)
Аудио
Идентификатор : 1
Формат : MPEG Audio
Версия формата : Version 1
Профиль формата : Layer 3
Режим : Joint stereo
Расширение режима : MS Stereo
Идентификатор кодека : 55
Идентификатор кодека/Подсказка : MP3
Продолжительность : 50 м.
Вид битрейта : Постоянный
Битрейт : 192 Кбит/сек
Каналы : 2 канала
Частота : 48,0 КГц
Метод сжатия : С потерями
Размер потока : 69,4 Мбайт (12%)
Выравнивание : Соединение по промежуткам
Продолжительность промежутка : 40 мс. (1,00 видеокадр)
Время предзагрузки промежутка : 504 мс.
Библиотека кодирования : LAME3.99r
Настройки программы : -m j -V 4 -q 2 -lowpass 18.6 -b 192
Download / Скачать

Хотите скачать бесплатно? Зарегистрируйтесь на сайте (ссылка на регистрацию). Pirat.ca - самый быстрый торрент трекер в рунете!

Как скачивать  ·   Что такое торрент  ·   Рейтинг и ограничения

SORDIS

Корсар

Пост 15-Июн-2014 14:49 (спустя 2 месяца 12 дней)

[Q] 

шо за кино?
[Профиль]  [ЛС] 
Показать сообщения:    
Ответить на тему

Текущее время: Сегодня 00:37

Часовой пояс: GMT + 4



Вы не можете начинать темы
Вы не можете отвечать на сообщения
Вы не можете редактировать свои сообщения
Вы не можете удалять свои сообщения
Вы не можете голосовать в опросах
Вы не можете прикреплять файлы к сообщениям
Вы не можете скачивать файлы

▼ Вниз