ML
     
  Уважаемый Гость!
Вы можете поддержать проект и зарегистрироваться у наших партнеров - онлайн-стратегия MyLands. При регистрации в игре Вы получите код, который сможете активировать после регистрации на pirat.ca и получить 1000 дублонов.

Ваш код:
0fcd44bd35319f69313aa6e53b31c51cbff1c942
 
     

Последний из Магикян / Сезон: 2 / Серии: 1-16 из 16 (Резо Гигинеишвили, Акаки Сахелашвили) [2014 г., комедия, WEB-DL]

Ответить на тему
 
Автор
Сообщение

Пост 11-Апр-2014 23:21

[Q] 

LPPI

- -Последний из Магикян-«Комедия с акцентом»- Производство: Россия / Yellow, Black & White
Жанр: комедия
Год выпуска: 2014 г.
Продолжительность: 16x~00:25:00-Режиссер: Резо Гигинеишвили, Акаки Сахелашвили
В ролях: Грант Тохатян, Анна Ардова, Андрей Бурковский, Элен Касьяник, Алина Гринберг, Луиза-Габриэла Бровина, Баймурат Аллабериев, Наталия Вдовина, Александр Феклистов, Амина Хасанова-Описание:-Карену Магикяну почти 50 лет. Он — глава семьи и отец трех дочерей. В этом возрасте люди уже не меняются. Он давно сформулировал законы и правила, по которым живет, и нарушать ничего не собирается. Ему-то самому кажется, что за последние 10-15 лет он ничуть не изменился, ни капельки не постарел. Более того — он считает себя вполне современным человеком, хотя у него мобильный телефон с черно-белым экраном и нет электронной почты.
Вот это, кстати, его раздражает особенно сильно — с чего все вокруг сходят с ума по этим гаджетам, айпэдам, айфонам. Почему младшая дочь, вернувшись из школы, сразу идет в интернет, а не поцеловать папу? «Общаться» — это же значит сидеть за столом, пить вино и разговаривать, а не пялиться в экран компьютера и портить себе глаза.
Он не понимает современных отношений. Как у дочери может остаться ночевать парень, когда они не женаты? И его не волнуют уверения жены, что «сейчас все так делают». Пусть так делают все, но не в его семье! Он кавказец, у него есть принципы!
Карен — «Последний из Магикян». И не только потому, что у него три дочери, а наследника в таком возрасте явно не предвидится. Он — представитель исчезающего вида людей, которые никогда не разговаривали по скайпу, для которых письмо — это исписанная буквами бумага в конверте, а самое главное — которые не прогибаются под меняющийся мир, потому что «сейчас так принято» и «ты живешь в 21 веке». Зрители помладше должны узнать в нем своих родителей, зрители постарше должны в нем узнать себя.- -Качество видео: WEB-DL
Контейнер: AVI
Видео кодек: XviD
Аудио кодек: AC3
Видео: 720x400 (1.80:1), 25 fps, XviD build 73 ~1800 kbps avg, 0.25 bit/pixel
Аудио: 48 kHz, AC3 Dolby Digital, 2/0 (L,R) ch, ~192 kbps
Cубтитры: отсутствуют
Код:
General
Complete name                            : D:\Последний из Магикян (2 сезон) 2014 WEB-DLRip\Последний из Магикян 2 - 01 серия.avi
Format                                   : AVI
Format/Info                              : Audio Video Interleave
File size                                : 349 MiB
Duration                                 : 24mn 20s
Overall bit rate                         : 2 002 Kbps
Writing application                      : VirtualDubMod 1.5.10.3 | www.virtualdub-fr.org || (build 2550/release)
Writing library                          : VirtualDubMod build 2550/release
Video
ID                                       : 0
Format                                   : MPEG-4 Visual
Format profile                           : Advanced [email protected]
Format settings, BVOP                    : 1
Format settings, QPel                    : No
Format settings, GMC                     : No warppoints
Format settings, Matrix                  : Default (MPEG)
Codec ID                                 : XVID
Codec ID/Hint                            : XviD
Duration                                 : 24mn 20s
Bit rate                                 : 1 800 Kbps
Width                                    : 720 pixels
Height                                   : 400 pixels
Display aspect ratio                     : 16:9
Frame rate                               : 25.000 fps
Color space                              : YUV
Chroma subsampling                       : 4:2:0
Bit depth                                : 8 bits
Scan type                                : Progressive
Compression mode                         : Lossy
Bits/(Pixel*Frame)                       : 0.250
Stream size                              : 313 MiB (90%)
Writing library                          : XviD 73
Audio
ID                                       : 1
Format                                   : AC-3
Format/Info                              : Audio Coding 3
Mode extension                           : CM (complete main)
Format settings, Endianness              : Big
Codec ID                                 : 2000
Duration                                 : 24mn 20s
Bit rate mode                            : Constant
Bit rate                                 : 192 Kbps
Channel(s)                               : 2 channels
Channel positions                        : Front: L R
Sampling rate                            : 48.0 KHz
Bit depth                                : 16 bits
Compression mode                         : Lossy
Stream size                              : 33.4 MiB (10%)
Alignment                                : Split accross interleaves
Interleave, duration                     : 40 ms (1.00 video frame)
Interleave, preload duration             : 500 ms
при каждом добавлении создётся новый торрент. Чтобы начать докачку новой серии, пользователям необходимо сделать следующее:
(1) остановить скачивание,
(2) удалить старый торрент у себя из клиента (старые серии удалять не надо),
(3) скачать новый торрент и запустить его у себя в клиенте, при этом указать клиенту путь в старую папку куда и должно происходить скачивание новых серий.
Ваш клиент при этом должен произвести хеширование (проверку) старой папки и будет докачивать только те серии которых у вас ещё нет. Старые серии при этом не удаляются, а продолжают раздаваться!
Eсли вы уже удалили старые серии, то предотвратить повторную закачку старых серий можно, отжав галочку в соответствующих местах при запуске нового торрента. (по возможности, желательно не удалять старые серии как можно дольше чтобы релизёр не столько продолжал раздавать старые серии, а смог сконцентрироваться на новых)
/spoiler]
Download / Скачать

Хотите скачать бесплатно? Зарегистрируйтесь на сайте (ссылка на регистрацию). Pirat.ca - самый быстрый торрент трекер в рунете!

Как скачивать  ·   Что такое торрент  ·   Рейтинг и ограничения



Последний раз редактировалось: LPPI (2014-04-25 12:22), всего редактировалось 3 раз(а)

Alingva

Гроза морей

18

Пост 11-Апр-2014 23:55 (спустя 33 минуты)

[Q] 

Автору респект!!! Смешной сериальчик!

_________________
Если Вам кажется что у Вас нимб над головой, то не обращайте на него внимание - это просто мания величия!
[Профиль]  [ЛС] 

Sergi4

Гроза морей

Пост 13-Апр-2014 19:07 (спустя 1 день 19 часов)

[Q] 

Супер! Спасибо!!!
[Профиль]  [ЛС] 

LPPI ®

137540

Пост 16-Апр-2014 10:31 (спустя 2 дня 15 часов)

[Q] 

Добавлены 9 и 10 серии.
[Профиль]  [ЛС] 

cssergey

Корсар

Пост 16-Апр-2014 12:57 (спустя 2 часа 26 минут)

[Q] 

а сколько серий всего то?
Автору респект!!!
[Профиль]  [ЛС] 

LPPI ®

137540

Пост 16-Апр-2014 13:07 (спустя 9 минут)

[Q] 

523465а сколько серий всего то?
Автору респект!!!
Не известно
[Профиль]  [ЛС] 

LPPI ®

137540

Пост 18-Апр-2014 20:11 (спустя 2 дня 7 часов)

[Q] 

Добавлены 11 и 12 серии.
[Профиль]  [ЛС] 

LPPI ®

137540

Пост 25-Апр-2014 12:23 (спустя 6 дней)

[Q] 

Добавлены 13, 14, 15, 16 серии.
Полный сезон!
[Профиль]  [ЛС] 
Показать сообщения:    
Ответить на тему

Текущее время: Сегодня 02:08

Часовой пояс: GMT + 4



Вы не можете начинать темы
Вы не можете отвечать на сообщения
Вы не можете редактировать свои сообщения
Вы не можете удалять свои сообщения
Вы не можете голосовать в опросах
Вы не можете прикреплять файлы к сообщениям
Вы не можете скачивать файлы

▼ Вниз