ML
     
  Уважаемый Гость!
Вы можете поддержать проект и зарегистрироваться у наших партнеров - онлайн-стратегия MyLands. При регистрации в игре Вы получите код, который сможете активировать после регистрации на pirat.ca и получить 1000 дублонов.

Ваш код:
c89b4b6523eaac3173e9a9c062ac1a19db575961
 
     

Закрытая школа. Сезон 2 (Серии 1-40 из 40) (Олег Асадулин, Сергей Пищиков) [2011 г., мистика, триллер, драма, IPTVRip]

Ответить на тему
 
Автор
Сообщение

Пост 12-Янв-2012 01:12

[Q] 

druger

Морской Волк

Закрытая школа
Сезон 2
Год выпуска: 2011
Страна: Россия
Жанр: Мистика, триллер, драма
Продолжительность: 1 серия ~ 48 мин.
Перевод: Не требуется
Режиссер: Олег Асадулин, Сергей Пищиков

В ролях: Татьяна Васильева, Антон Хабаров, Павел Прилучный, Алексей Коряков, Татьяна Космачева, Агата Муцениеце, Игорь Юртаев, Юлия Агафонова, Ксения Энтелис, Михаил Сафронов, Прохор Дубравин, Луиза Габриэла Бровина, Александр Рапопорт, Александр Яцко, Михаил Ремизов
Описание: «Закрытая школа» — это мистический триллер, главными героями которого стали ученики элитной школы-интерната. В лесу, вдали от городской суеты, стоит старинная усадьба, в которой живут и учатся самые разные дети: и отпрыски богатых родителей, и талантливые ребята из бедных семей. Они совершенно разные, но у них есть общая черта — они брошены, одиноки и очень ранимы.
Как и любые другие дети, по вечерам они рассказывают друг другу страшные истории. О том, что лес, глухой стеной окружающий их школу, хранит в себе страшное зло. Говорят, в нем водятся странные существа и без вести пропадают люди. Дети смеются и подшучивают над этими слухами, не догадываясь, что большинство из этих страшилок — правда. Лишь когда бесследно исчезает один из преподавателей, ученики начинают собственное расследование…
Здесь нет второстепенных персонажей. Здесь нет неважных событий. У каждого есть своя тайна и свой личный скелет в шкафу. Герои балансируют между любовью и ненавистью, дружбой и соперничеством, добром и злом. Не подозревая, что настоящая опасность подстерегает их не в стенах школы, а в глубине леса, где балансировать придется между жизнью и смертью…

Качество: IPTVRip
Формат: AVI
Видео кодек: XVID
Аудио кодек: MP3
Видео: 704X400, 25 fps, 1443 kbps, 0.20 bit/pixel
Аудио : 48 kHz, MPEG Audio Layer 3, 2 ch, 128 kbps


Доп. инфа : Этот сериал был снят на основе испанского сериала Чёрная лагуна





Общее
Полное имя : D:\Program Files\Zakrytaya.shkola.s02.2011.XviD.IPTVRip.by.Shel\Zakrytaya.shkola.s02.e01.2011.XviD.IPTVRip.by.Shel.avi
Формат : AVI
Формат/Информация : Audio Video Interleave
Размер файла : 545 Мбайт
Продолжительность : 48 м.
Общий поток : 1581 Кбит/сек
Библиотека кодирования : VirtualDub build 32842/release
Видео
Идентификатор : 0
Формат : MPEG-4 Visual
Профиль формата : Advanced [email protected]
Параметр BVOP формата : 2
Параметр QPel формата : Нет
Параметр GMC формата : Без точки перехода
Параметр матрицы формата : Default (MPEG)
Идентификатор кодека : XVID
Идентификатор кодека/Подсказка : XviD
Продолжительность : 48 м.
Битрейт : 1443 Кбит/сек
Ширина : 704 пикс.
Высота : 400 пикс.
Соотношение сторон : 16:9
Частота кадров : 25,000 кадр/сек
Цветовое пространство : YUV
Подвыборка цветности : 4:2:0
Битовая глубина : 8 бит
Тип развёртки : Прогрессивная
Метод сжатия : С потерями
Бит/(Пиксели*Кадры) : 0.205
Размер потока : 498 Мбайт (91%)
Библиотека кодирования : XviD 64
Аудио
Идентификатор : 1
Формат : MPEG Audio
Версия формата : Version 1
Профиль формата : Layer 3
Режим : Joint stereo
Расширение режима : MS Stereo
Идентификатор кодека : 55
Идентификатор кодека/Подсказка : MP3
Продолжительность : 48 м.
Вид битрейта : Постоянный
Битрейт : 128 Кбит/сек
Каналы : 2 канала
Частота : 48,0 КГц
Метод сжатия : С потерями
Размер потока : 44,2 Мбайт (8%)
Выравнивание : Разделение по промежуткам
Продолжительность промежутка : 40 мс. (1,00 видеокадр)
Время предзагрузки промежутка : 500 ms

Download / Скачать

Хотите скачать бесплатно? Зарегистрируйтесь на сайте (ссылка на регистрацию). Pirat.ca - самый быстрый торрент трекер в рунете!

Как скачивать  ·   Что такое торрент  ·   Рейтинг и ограничения

Пост 12-Янв-2012 13:20 (спустя 12 часов)

Топик был перенесен из форума Сериалы в форум Отечественные сериалы

C2H5OH
 

Marketing

Лоцман

Пост 07-Май-2012 15:36 (спустя 3 месяца 26 дней)

[Q] 

[Профиль]  [ЛС] 

black phantom

Штурман

Пост 04-Июн-2012 18:42 (спустя 28 дней)

[Q] 

fg fg dc cr cw ay смотреть всем, фильм прикольный, правда очень затянутый сюжет.
[Профиль]  [ЛС] 

MakeLouder

Лоцман

Пост 30-Авг-2012 15:54 (спустя 2 месяца 25 дней)

[Q] 

Смотрел всё на videomore на мониторе, и с рекламой. Уж лучше скачаю и посмотрю на плазме) Спасибо.

_________________
[Профиль]  [ЛС] 

elenas_1998

Штурман

Пост 13-Ноя-2012 14:32 (спустя 2 месяца 13 дней)

[Q] 

[Профиль]  [ЛС] 

sem0875

Лоцман

Пост 09-Май-2013 20:43 (спустя 5 месяцев 26 дней)

[Q] 

Отстой
bz
[Профиль]  [ЛС] 

maximusqu

Лоцман

Пост 15-Июн-2013 12:28 (спустя 1 месяц 5 дней)

[Q] 

Спасибо!!!
[Профиль]  [ЛС] 
Показать сообщения:    
Ответить на тему

Текущее время: Сегодня 22:32

Часовой пояс: GMT + 4



Вы не можете начинать темы
Вы не можете отвечать на сообщения
Вы не можете редактировать свои сообщения
Вы не можете удалять свои сообщения
Вы не можете голосовать в опросах
Вы не можете прикреплять файлы к сообщениям
Вы не можете скачивать файлы

▼ Вниз