ML
     
  Уважаемый Гость!
Вы можете поддержать проект и зарегистрироваться у наших партнеров - онлайн-стратегия MyLands. При регистрации в игре Вы получите код, который сможете активировать после регистрации на pirat.ca и получить 1000 дублонов.

Ваш код:
f612af22ea70acf5cbe90707ac5a076d215f8f7f
 
     

Куприн / Сезон: 1 / Серии: 01-13 из 13 (Влад Фурман) [2014 г., мелодрама, драма, HDTVRip]

Ответить на тему
 
Автор
Сообщение

Пост 05-Июн-2014 13:36

[Q] 

Sigel-1

Шкипер

-Куприн-- Производство: Россия
Жанр: мелодрама, драма
Год выпуска: 2014 г.
Продолжительность: 00:50:00
Российская премьера: 2 июня 2014
Режиссер: Влад Фурман-В ролях: Михаил Пореченков, Александра Черкасова, Полина Агуреева, Светлана Ходченкова, Александр Чевычелов, Антон Шагин, Максим Аверин, Леонид Кулагин, Ирина Леонова, Ольга Павловец, Катерина Шпица, Анатолий Белый, Василий Щипицын, Наталья Егорова, Нелли Попова, Наталья Ткаченко, Ираида Краснопольская, Евгения Нохрина, Елизавета Боярская, Леонид Бичевин, Евгений Цыганов, Екатерина Тарасова, Максим Суханов, Евгения Симонова, Виталий Кищенко, Мариэтта Цигаль-Полищук-Описание: Многосерийный художественный фильм, снятый по мотивам повестей и рассказов классика русской литературы Александра Куприна. В картине три части - "Яма", "Впотьмах" и "Поединок". Главная идея фильма – переплести судьбы героев из разных повестей и рассказов Александра Куприна. Так, в "Яме" появляются влюбленный Георгий Степанович Желтков, Вера Николаевна Шеина и другие герои из "Гранатового браслета". В героя повести "Впотьмах" Аларина влюбляется дрессировщица тигров Зенида из рассказа "Люция". В повествование активно включен и сам Александр Куприн (Михаил Пореченков), который не просто исполняет роль рассказчика, но и лично встречается с героями.-
Качество видео: HDTVRip
Контейнер: AVI
Видео кодек: XviD
Аудио кодек: AC3
Видео: MPEG-4 Visual at 1696 Кбит/сек: 720 x 400 (1.800) at 25.000 fps, 0.236 Бит/Пиксели
Аудио: AC-3 at 192 Кбит/сек: 2 канала, 48,0 КГц
Cубтитры: отсутствуют
Общее
Полное имя : D:\уторент\раздачя\Kuprin.HDTVRip\Kuprin.01.HDTVRip.avi
Формат : AVI
Формат/Информация : Audio Video Interleave
Размер файла : 692 Мбайт
Продолжительность : 50 м.
Общий поток : 1898 Кбит/сек
Библиотека кодирования : VirtualDub build 32507/release
Видео
Идентификатор : 0
Формат : MPEG-4 Visual
Профиль формата : Advanced [email protected]
Параметр BVOP формата : 2
Параметр QPel формата : Нет
Параметр GMC формата : Без точки перехода
Параметр матрицы формата : Default (H.263)
Режим смешивания : Сжатый битовый поток
Идентификатор кодека : XVID
Идентификатор кодека/Подсказка : XviD
Продолжительность : 50 м.
Битрейт : 1696 Кбит/сек
Ширина : 720 пикселей
Высота : 400 пикселей
Соотношение сторон : 16:9
Частота кадров : 25,000 кадров/сек
Цветовое пространство : YUV
Субдискретизация насыщенности : 4:2:0
Битовая глубина : 8 бит
Тип развёртки : Прогрессивная
Метод сжатия : С потерями
Бит/(Пиксели*Кадры) : 0.236
Размер потока : 618 Мбайт (89%)
Библиотека кодирования : XviD 1.2.1 (UTC 2008-12-04)
Аудио
Идентификатор : 1
Формат : AC-3
Формат/Информация : Audio Coding 3
Расширение режима : CM (complete main)
Параметр Endianness формата : Big
Идентификатор кодека : 2000
Продолжительность : 50 м.
Вид битрейта : Постоянный
Битрейт : 192 Кбит/сек
Каналы : 2 канала
Расположение каналов : Front: L R
Частота : 48,0 КГц
Битовая глубина : 16 бит
Метод сжатия : С потерями
Размер потока : 70,0 Мбайт (10%)
Выравнивание : Соединение по промежуткам
Продолжительность промежутка : 40 мс. (1,00 видеокадр)
Время предзагрузки промежутка : 512 мс.
-Добавлена тринадцатая, заключительная, серия первого сезона
Download / Скачать

Хотите скачать бесплатно? Зарегистрируйтесь на сайте (ссылка на регистрацию). Pirat.ca - самый быстрый торрент трекер в рунете!

Как скачивать  ·   Что такое торрент  ·   Рейтинг и ограничения

Sigel-1 ®

Шкипер

3144

Пост 06-Июн-2014 15:57 (спустя 1 день 2 часа)

[Q] 

Добавлены 6-7 серии

_________________
[Профиль]  [ЛС] 

Пост 06-Июн-2014 16:27 (спустя 29 минут)

Топик был перенесен из форума Отечественные сериалы (Трюм) в форум Сериалы в эфире
kugesan
 

Taps

Штурман

Пост 06-Июн-2014 20:35 (спустя 4 часа)

[Q] 

Сколько всего будет серий ?
[Профиль]  [ЛС] 

Sigel-1 ®

Шкипер

3144

Пост 06-Июн-2014 20:37 (спустя 1 минута)

[Q] 

Taps, Верху написоно

_________________
[Профиль]  [ЛС] 

Taps

Штурман

Пост 06-Июн-2014 20:51 (спустя 13 минут)

[Q] 

В картине три части - "Яма", "Впотьмах" и "Поединок".
Сколько серий ?
[Профиль]  [ЛС] 

Sigel-1 ®

Шкипер

3144

Пост 06-Июн-2014 22:56 (спустя 2 часа 5 минут)

[Q] 

Taps, ТАМ 1-16 серий дальше не знаю...
Многосерийный художественный фильм, снятый по мотивам повестей и рассказов классика русской литературы Александра Куприна. В картине три части - "Яма", "Впотьмах" и "Поединок". Главная идея фильма – переплести судьбы героев из разных повестей и рассказов Александра Куприна. Так, в "Яме" появляются влюбленный Георгий Степанович Желтков, Вера Николаевна Шеина и другие герои из "Гранатового браслета". В героя повести "Впотьмах" Аларина влюбляется дрессировщица тигров Зенида из рассказа "Люция". В повествование активно включен и сам Александр Куприн (Михаил Пореченков), который не просто исполняет роль рассказчика, но и лично встречается с героями.

_________________
[Профиль]  [ЛС] 

Sigel-1 ®

Шкипер

3144

Пост 08-Июн-2014 19:18 (спустя 1 день 20 часов)

[Q] 

Я ушел со всех моих раздач, раздавать больше не буду
http://pirat.ca/tracker.php?rid=698663#results

_________________
[Профиль]  [ЛС] 

Taps

Штурман

Пост 08-Июн-2014 19:44 (спустя 25 минут)

[Q] 

Яма- 5 серий
Впотьмах - 4 серии
Поединок - 4 серии
Итого 13 серий.
Качать - ____***kuprin-01-09-iz-13-2013-hdtvrip-720p-ot-mediaclub
!kugesan писал(а):

На первый раз устное предупреждение!
Ссылки на сторонние ресурсы запрещены.
[Профиль]  [ЛС] 

kugesan

56717

Пост 11-Июн-2014 21:34 (спустя 3 дня)

[Q] 

Добавлена тринадцатая, заключительная, серия первого сезона

_________________

В мире две бесконечности: вселенная и человеческая глупость - Альберт Эйнштен
«Можно вытащить человека из грязи, но нельзя вытащить грязь из человека»!
[Профиль]  [ЛС] 

Пост 11-Июн-2014 22:18 (спустя 43 минуты)

Топик был перенесен из форума Сериалы в эфире в форум Отечественные сериалы
kugesan
 

Коммунист

Морской Волк

Пост 12-Июн-2014 10:28 (спустя 12 часов)

[Q] 

классика! рекомендую всем! снят отлично!
[Профиль]  [ЛС] 

SORDIS

Корсар

Пост 15-Июн-2014 01:44 (спустя 2 дня 15 часов)

[Q] 

Пореченков красава
[Профиль]  [ЛС] 

petrovich2005

Корсар

Пост 18-Июн-2014 17:20 (спустя 3 дня)

[Q] 

гляну, может понравится
[Профиль]  [ЛС] 

RnD

Морской Волк

Пост 26-Июн-2014 19:07 (спустя 8 дней)

[Q] 

Релизеру респект!! Бочонок в трюме. Раздачу поддержу.
[Профиль]  [ЛС] 

Victorsalata

Корсар

Пост 03-Июл-2014 17:03 (спустя 6 дней)

[Q] 

Отличная режиссура и игра актеров.
[Профиль]  [ЛС] 
Показать сообщения:    
Ответить на тему

Текущее время: Сегодня 00:22

Часовой пояс: GMT + 4



Вы не можете начинать темы
Вы не можете отвечать на сообщения
Вы не можете редактировать свои сообщения
Вы не можете удалять свои сообщения
Вы не можете голосовать в опросах
Вы не можете прикреплять файлы к сообщениям
Вы не можете скачивать файлы

▼ Вниз