ML
     
  Уважаемый Гость!
Вы можете поддержать проект и зарегистрироваться у наших партнеров - онлайн-стратегия MyLands. При регистрации в игре Вы получите код, который сможете активировать после регистрации на pirat.ca и получить 1000 дублонов.

Ваш код:
193c38d0130f05c24de871678ea3ac181461757d
 
     

Сладкая жизнь / Серии: 1-6 из 6 (Андрей Джунковский) [2014 г., Комедия, HDTVRip] (Оригинальное)

Ответить на тему
 
Автор
Сообщение

Пост 08-Июн-2014 22:22

[Q] 

Resident

-Сладкая жизнь-- Производство: Россия, Good Story Media по заказу ТНТ
Жанр: Комедия
Год выпуска: 2014 г.
Продолжительность: 00:44:00
Мировая премьера: июнь 2014
Режиссер: Андрей Джунковский-В ролях: Марта Носова, Никита Панфилов, Анастасия Меськова, Антон Денисенко, Мария Шумакова, Роман Маякин, Лукерья Ильяшенко, Анастасия Клюева, Николь Спиридонова, Павел Слепухов-Описание: В центре истории «Сладкой жизни» шестеро успешных тридцатилетних москвичей, чья жизнь меняется с появлением главной героини Саши — матери-одиночки из Перми, зарабатывающей на жизнь в ночном клубе танцами go-go. После неприятного инцидента на дне рождения местного мажора Саша отправляет ребенка к бабушке, а сама едет в гости к московской подруге Лере. Когда-то они вместе танцевали в кордебалете Большого театра. Шесть часовых серий «Сладкой жизни» укладываются всего в 8 дней. Но за это время жизнь каждого из героев сериала повернется на 180 градусов. И каждый из участников событий успеет показать себя с самой неожиданной стороны: в диапазоне от абсолютного свинства до настоящего благородства».-Качество видео: HDTVRip
Контейнер: AVI
Видео кодек: XviD
Аудио кодек: AC3
Видео: XviD, ~ 1800 Кбит/с, 720x400, 25 fps, 0.226 bit / pix
Аудио: 44.1 kHz, AC3, 2 ch, 192 Кбит/с
Cубтитры: отсутствуют
General
Complete name : W:\Sladkaya.jizhi.2014.HDTVRip\Sladkaya.jizhi.04.2014.HDTVRip.avi
Format : AVI
Format/Info : Audio Video Interleave
File size : 601 MiB
Duration : 45mn 55s
Overall bit rate : 1 830 Kbps
Writing application : VirtualDubMod 1.5.10.3 | www.virtualdub-fr.org || (build 2550/release)
Writing library : VirtualDubMod build 2550/release
Video
ID : 0
Format : MPEG-4 Visual
Format profile : Advanced [email protected]
Format settings, BVOP : Yes
Format settings, QPel : No
Format settings, GMC : No warppoints
Format settings, Matrix : Default (MPEG)
Codec ID : XVID
Codec ID/Hint : XviD
Duration : 45mn 55s
Bit rate : 1 628 Kbps
Width : 720 pixels
Height : 400 pixels
Display aspect ratio : 16:9
Frame rate : 25.000 fps
Color space : YUV
Chroma subsampling : 4:2:0
Bit depth : 8 bits
Scan type : Progressive
Bits/(Pixel*Frame) : 0.226
Stream size : 535 MiB (89%)
Writing library : XviD 1.2.1 (UTC 2008-12-04)
Audio
ID : 1
Format : AC-3
Format/Info : Audio Coding 3
Mode extension : CM (complete main)
Codec ID : 2000
Duration : 45mn 55s
Bit rate mode : Constant
Bit rate : 192 Kbps
Channel(s) : 2 channels
Channel positions : Front: L R
Sampling rate : 44.1 KHz
Bit depth : 16 bits
Stream size : 63.1 MiB (10%)
Alignment : Split accross interleaves
Interleave, duration : 40 ms (1.00 video frame)
Interleave, preload duration : 500 ms
Download / Скачать

Хотите скачать бесплатно? Зарегистрируйтесь на сайте (ссылка на регистрацию). Pirat.ca - самый быстрый торрент трекер в рунете!

Как скачивать  ·   Что такое торрент  ·   Рейтинг и ограничения

Андря

8409

Пост 08-Июн-2014 22:33 (спустя 11 минут)

[Q] 

это режиссёрская версия, или версия для ТВ?

_________________
Като Тешекика
[Профиль]  [ЛС] 

Resident ®

45470

Пост 08-Июн-2014 23:29 (спустя 56 минут)

[Q] 

545171это режиссёрская версия, или версия для ТВ?
в Амедиатеке до эфира на THT версия для взрослых
Добавлено спустя 16 минут 45 секунд:
545171это режиссёрская версия?
не совсем понял Вас укажите источник потверждения этой информации

_________________

Раздаю с 00:00 до 04:00
[Профиль]  [ЛС] 

Андря

8409

Пост 09-Июн-2014 08:21 (спустя 8 часов)

[Q] 

545186в Амедиатеке до эфира на THT версия для взрослых
это и есть режиссёрская версия.
у меня канал "Амедиа" показывает, из программы "Эпизоды" информация.

_________________
Като Тешекика
[Профиль]  [ЛС] 

SashaSofer

Штурман

Пост 11-Июн-2014 22:21 (спустя 2 дня 13 часов)

[Q] 

автору Спасибо
[Профиль]  [ЛС] 

Nick28

Лоцман

Пост 29-Июн-2014 17:51 (спустя 17 дней)

[Q] 

545294
545186в Амедиатеке до эфира на THT версия для взрослых
это и есть режиссёрская версия.
у меня канал "Амедиа" показывает, из программы "Эпизоды" информация.
Там подписка платная
[Профиль]  [ЛС] 

Platina-18

Лоцман

Пост 16-Дек-2014 13:44 (спустя 5 месяцев 16 дней)

[Q] 

Спасибо. Искала, нашла, но только здесь. Огромное спасибо.
[Профиль]  [ЛС] 

Amazuro

Штурман

Пост 25-Дек-2014 23:09 (спустя 9 дней)

[Q] 

Братишки, чо 2й сезон раздавать будем? =)

_________________
Поделюсь хорошим настроением =)
[Профиль]  [ЛС] 

denis1705

Корсар

Пост 30-Янв-2015 23:14 (спустя 1 месяц 5 дней)

[Q] 

Посмотрим, что это)) ХЗ!!!
[Профиль]  [ЛС] 

anton78

Морской Волк

Пост 10-Май-2015 23:17 (спустя 3 месяца 11 дней)

[Q] 

Подожди, дай первый посмотреть. От души, БРО!!! А банан тебе не выдать?
[Профиль]  [ЛС] 

Infand

Лоцман

Пост 18-Май-2015 20:59 (спустя 7 дней)

[Q] 

Спасибо!!! Супер!
[Профиль]  [ЛС] 

Qasya

Штурман

Пост 24-Май-2015 17:35 (спустя 5 дней)

[Q] 

Люди раздайте :)
[Профиль]  [ЛС] 

svitichas

Лоцман

Пост 28-Май-2015 14:58 (спустя 3 дня)

[Q] 

скачал два раза... со звуком беда... заикается...
[Профиль]  [ЛС] 

denis1705

Корсар

Пост 24-Окт-2015 11:06 (спустя 4 месяца 26 дней)

[Q] 

Кто просит, всегда помогаю, стою на раздаче! Зуб даю...
[Профиль]  [ЛС] 
Показать сообщения:    
Ответить на тему

Текущее время: Сегодня 18:05

Часовой пояс: GMT + 4



Вы не можете начинать темы
Вы не можете отвечать на сообщения
Вы не можете редактировать свои сообщения
Вы не можете удалять свои сообщения
Вы не можете голосовать в опросах
Вы не можете прикреплять файлы к сообщениям
Вы не можете скачивать файлы

▼ Вниз