ML
     
  Уважаемый Гость!
Вы можете поддержать проект и зарегистрироваться у наших партнеров - онлайн-стратегия MyLands. При регистрации в игре Вы получите код, который сможете активировать после регистрации на pirat.ca и получить 1000 дублонов.

Ваш код:
0fcd44bd35319f69313aa6e53b31c51cbff1c942
 
     

Стрелок 2: Право на смерть / Серии: 1-4 из 4 (Аршо Арутюнян) [2014 г., Боевик, SATRip]

Ответить на тему
 
Автор
Сообщение

Пост 14-Июн-2014 16:55

[Q] 

mishanya___

-Стрелок 2: Право на смерть--
Производство: Россия
Жанр: Боевик
Год выпуска: 2014 г.
Продолжительность: 4 x ~00:42:00
Премьера: 12 июня 2014 ?
Режиссер: Аршо Арутюнян-В ролях: Евгений Березовский, Александр Носик, Станислав Эрклиевский, Дмитрий Клепацкий, Юлия Борисова, Сергей Холмогоров, Сос Джанибекян, Давид Кацарава, Арам Караханян, Сергей Апрельский, Виктор Фалалеев-Описание: Андрей Макаров — сотрудник спецслужб. Он входит в состав группы, выслеживающей террористов с востока. Андрей плохо слышит после произошедшего с ним в детстве несчастного случая, но отлично читает по губам и в совершенстве владеет арабским… Выполняя очередное задание в одном из ближневосточных государств, он узнает, что боевики готовят серию терактов на территории России с использованием девушек-смертниц. Главарь террористов Абу Джалид — идейный полевой командир.ист. kinopoisk.ru
Действия отечественного боевика разворачиваются в наши дни, в одной среднеазиатской республике. Родного брата молодой девушки Мадины, который вступился за сестру, убивают члены местной бандитской группировки. После случившейся трагедии отец Мадины Абдула просит помощи у старого приятеля, однако тот отказывает ему. Никто не хочет вмешиваться в дела банды, ибо знает, чем это может закончиться. Абдула вынужден искать поддержки у других, поскольку местные жители либо запуганы головорезами, либо подкуплены. Приехав в Москву, Абдула знакомится с Андреем Макаровым — бывшим сотрудником российских спецслужб.
Макаров соглашается помочь Абдуле разобраться с группировкой в его городе. Бывшие коллеги оказывают Андрею и его новым друзьям негласное содействие, а так же действия Макарова полностью поддерживают измученные односельчане Абдулы.



Качество видео: SATRip
Контейнер: AVI
Видео кодек: XviD
Аудио кодек: AC3
Видео: 720x304; 1552 kbps; 25.000 fps; 0.284 Bits/Pixel
Аудио: 192 kbps; 2 ch; 48.0 KHz
General
Complete name : D:\Torrents\Strelok.2.2014.SATRip\01.Strelok.2.2014.SATRip.avi
Format : AVI
Format/Info : Audio Video Interleave
File size : 550 MiB
Duration : 43mn 51s
Overall bit rate : 1 754 Kbps
Writing application : VirtualDubMod 1.5.10.3 | www.virtualdub-fr.org || (build 2550/release)
Writing library : VirtualDubMod build 2550/release
Video
ID : 0
Format : MPEG-4 Visual
Format profile : Advanced [email protected]
Format settings, BVOP : Yes
Format settings, QPel : No
Format settings, GMC : No warppoints
Format settings, Matrix : Custom
Codec ID : XVID
Codec ID/Hint : XviD
Duration : 43mn 51s
Bit rate : 1 552 Kbps
Width : 720 pixels
Height : 304 pixels
Display aspect ratio : 2.35:1
Frame rate : 25.000 fps
Color space : YUV
Chroma subsampling : 4:2:0
Bit depth : 8 bits
Scan type : Progressive
Compression mode : Lossy
Bits/(Pixel*Frame) : 0.284
Stream size : 487 MiB (88%)
Writing library : XviD 73
Audio
ID : 1
Format : AC-3
Format/Info : Audio Coding 3
Mode extension : CM (complete main)
Format settings, Endianness : Big
Codec ID : 2000
Duration : 43mn 51s
Bit rate mode : Constant
Bit rate : 192 Kbps
Channel(s) : 2 channels
Channel positions : Front: L R
Sampling rate : 48.0 KHz
Bit depth : 16 bits
Compression mode : Lossy
Stream size : 60.2 MiB (11%)
Alignment : Split accross interleaves
Interleave, duration : 40 ms (1.00 video frame)
Interleave, preload duration : 500 ms
Download / Скачать

Хотите скачать бесплатно? Зарегистрируйтесь на сайте (ссылка на регистрацию). Pirat.ca - самый быстрый торрент трекер в рунете!

Как скачивать  ·   Что такое торрент  ·   Рейтинг и ограничения

Alexlogin

Гроза морей

105

Пост 15-Июн-2014 12:46 (спустя 19 часов)

[Q] 

Спасибо посмотрим
[Профиль]  [ЛС] 

Дядя Витя

53908

Пост 16-Июн-2014 14:55 (спустя 1 день 2 часа)

[Q] 

mishanya___, значит, юмор груп релиз ... мои поздравления )

_________________
?
[Профиль]  [ЛС] 

ardaric-5

Морской Волк

Пост 17-Июн-2014 20:45 (спустя 1 день 5 часов)

[Q] 

Надобно заценить

_________________
Я ничего не имею лично против Бога.Но я терпеть не могу Его фан-клуб.
[Профиль]  [ЛС] 

petrovich2005

Корсар

Пост 18-Июн-2014 17:14 (спустя 20 часов)

[Q] 

нужно бы оценить
[Профиль]  [ЛС] 

h5n1

Гроза морей

483

Пост 04-Авг-2014 06:30 (спустя 1 месяц 15 дней)

[Q] 

Лови бочку

_________________
«Мы находимся здесь, чтобы внести свой вклад в этот мир. Иначе зачем мы здесь?» S.Jobs
[Профиль]  [ЛС] 

Scorpion7474

Флибустьер

Пост 14-Авг-2014 12:38 (спустя 10 дней)

[Q] 

Даа копия "снайпера" американского Автору респект!!! Лови бочку
[Профиль]  [ЛС] 
Показать сообщения:    
Ответить на тему

Текущее время: Сегодня 02:09

Часовой пояс: GMT + 4



Вы не можете начинать темы
Вы не можете отвечать на сообщения
Вы не можете редактировать свои сообщения
Вы не можете удалять свои сообщения
Вы не можете голосовать в опросах
Вы не можете прикреплять файлы к сообщениям
Вы не можете скачивать файлы

▼ Вниз