ML
     
  Уважаемый Гость!
Вы можете поддержать проект и зарегистрироваться у наших партнеров - онлайн-стратегия MyLands. При регистрации в игре Вы получите код, который сможете активировать после регистрации на pirat.ca и получить 1000 дублонов.

Ваш код:
a01a592a88af5f9996a6d1baec61b18a1769954d
 
     

Интерны / Сезон: 13 / Серии: 20 из 20 (Максим Пежемский, ...) [2015, комедия, ситком, SATRip] (Финал сезона)

Ответить на тему
 
Автор
Сообщение

Пост 25-Июн-2014 22:11

[Q] 

kugesan

-Интерны
«Лучший антидепрессант на российском ТВ»
-- Страна: Россия
Производство:
Жанр: комедия, ситком
Год выпуска: 2015 г.-Премьера (мир): 31 августа 2010, ...
Премьера (РФ): 29 марта 2010
Релиз на DVD: 15 мая 2010, «Флагман-Трейд», ...-Режиссер: Максим Пежемский, Заур Болотаев, Милан Килибарда, ...-В ролях: Иван Охлобыстин, Илья Глинников, Александр Ильин мл., Вадим Демчог, Аглая Тарасова, Юлия Назаренко, Светлана Камынина, Яна Гурьянова, Один Ланд Байрон, Татьяна Лянник, Мария Пирогова, ...-Описание:
Некоторые люди в белых халатах уверены, что сердце - всего лишь мышца, качающая кровь. Но только не герои нового сезона «Интернов». На вверенном доктору Быкову этаже кипят пушкинские страсти: интриги, секс и любовные треугольники стали нормой жизни . А перчинки всему этому добавят шаманы в палатах, жены с почасовой оплатой и всего один, но зато настоящий пистолет. Все смешалось в отделении доктора Быкова!-Сезон: 13
Серии: 20 из 20 серий
Продолжительность: ~ 00:24:00 мин серия-

Качество видео: SATRip
Контейнер: AVI
Видео кодек: XviD
Аудио кодек: MP3
Видео: MPEG-4 Visual at 1499 Кбит/сек: 720 x 400 (1.800) at 25.000 fps: 0.21 Бит/Пиксели
Аудио Rus: MPEG Audio at 128 Кбит/сек: 2 канала, 48,0 КГц
Cубтитры: отсутствуют
-
Общее
Полное имя : E:\_Сериалы\_Сериалы\Интерны(13 сезон)SATRip\Интерны.01.серия.2015.avi
Формат : AVI
Формат/Информация : Audio Video Interleave
Размер файла : 287 Мбайт
Продолжительность : 24 м.
Общий поток : 1642 Кбит/сек
Видео
Идентификатор : 0
Формат : MPEG-4 Visual
Параметр BVOP формата : 1
Параметр QPel формата : Нет
Параметр GMC формата : Без точки перехода
Параметр матрицы формата : Default (H.263)
Идентификатор кодека : DX50
Идентификатор кодека/Подсказка : DivX 5
Продолжительность : 24 м.
Битрейт : 1499 Кбит/сек
Ширина : 720 пикселей
Высота : 400 пикселей
Соотношение сторон : 16:9
Частота кадров : 25,000 кадров/сек
Цветовое пространство : YUV
Субдискретизация насыщенности : 4:2:0
Битовая глубина : 8 бит
Тип развёртки : Прогрессивная
Метод сжатия : С потерями
Бит/(Пиксели*Кадры) : 0.208
Размер потока : 262 Мбайт (91%)
Библиотека кодирования : DivX 6.8.5 (UTC 2009-08-20)
Аудио
Идентификатор : 1
Формат : MPEG Audio
Версия формата : Version 1
Профиль формата : Layer 3
Режим : Joint stereo
Расширение режима : MS Stereo
Идентификатор кодека : 55
Идентификатор кодека/Подсказка : MP3
Продолжительность : 24 м.
Вид битрейта : Постоянный
Битрейт : 128 Кбит/сек
Каналы : 2 канала
Частота : 48,0 КГц
Метод сжатия : С потерями
Размер потока : 22,4 Мбайт (8%)
Выравнивание : Соединение по промежуткам
Продолжительность промежутка : 24 мс. (0,60 видеокадр)
-
-Скриншоты:
-
-
Раздача ведётся путём добавления новых серий; при каждом добавлении создаётся новый торрент.
Чтобы начать докачку новой серии, пользователям необходимо сделать следующее:
1. остановить скачивание,
2. удалить старый торрент у себя из клиента (старые серии удалять не надо),
3. скачать новый торрент и запустить его у себя в клиенте вместо старого, при этом указать клиенту путь в старую папку, куда и должно происходить скачивание новых серий.
Ваш клиент при этом должен произвести хеширование (проверку) старой папки (если не производит сам - помогите ему сделать это), и будет докачивать только те серии которых у вас ещё нет. Старые серии при этом не удаляются, а продолжают раздаваться!
Eсли вы уже удалили старые серии, то предотвратить повторную закачку старых серий можно, отжав галочку в соответствующих местах при запуске нового торрента. По возможности, желательно не удалять старые серии как можно дольше, чтобы релизёр не столько продолжал раздавать старые серии, а смог сконцентрироваться на новых.
Совет для тех, кто не хочет ждать перехеширования:
Создайте ещё одну папку рядом с папкой сериала (рядом, а не в ней!!!). Каждую новую серию после удачной загрузки копируйте в новую папку так чтобы ваша основная папка всегда была пуста. Когда ваш новый торрент предложит вам закачать все файлы, выберете только последнюю. Для сидирования же укажите адрес новой папки.
Как закачать отдельный файл из торрента или докачать ранее пропущенные файлы торрента!
-
1. Открыть торрент
2. Снять галки с тех файлов торрента, которые мы не хотим закачивать. Оставляем только на нужных нам файлах (файле).
3. Нажать О.К.
В клиенте utorrent
Инструкция
1) Открыть торрент

2) Снять галки с тех файлов торрента, которые мы не хотим закачивать:
* либо вручную, снимая с каждого файла галку( скрин №1)
* либо, нажав кнопку "Снять метки (Select None)", сняв сразу со всех файлов(скрин №2)
№1

№2

Оставляем только на нужных нам файлах (файле).

3)Нажать О.К
-Добавлена двадцатая, заключительная, серия тринадцатого сезона
Download / Скачать

Хотите скачать бесплатно? Зарегистрируйтесь на сайте (ссылка на регистрацию). Pirat.ca - самый быстрый торрент трекер в рунете!

Как скачивать  ·   Что такое торрент  ·   Рейтинг и ограничения



Последний раз редактировалось: kugesan (2015-10-07 22:46), всего редактировалось 27 раз(а)

Кристина119

Морской Волк

Пост 09-Сен-2015 11:37 (спустя 1 год 2 месяца)

[Q] 

Спасибо за оперативность Лови бочку
[Профиль]  [ЛС] 

pampi

Лоцман

Пост 16-Сен-2015 21:55 (спустя 7 дней)

[Q] 

Скорости вообще нет =(
[Профиль]  [ЛС] 

ktest0

Корсар

33

Пост 25-Сен-2015 00:10 (спустя 8 дней)

[Q] 

И где раздача? 13 серия в нулях стоит!
[Профиль]  [ЛС] 

kugesan ®

56691

Пост 25-Сен-2015 00:14 (спустя 3 минуты)

[Q] 

Немного терпения и все нормализуется... Еще грузится)
Трансмишн, понимает ли ...

_________________

В мире две бесконечности: вселенная и человеческая глупость - Альберт Эйнштен
«Можно вытащить человека из грязи, но нельзя вытащить грязь из человека»!
[Профиль]  [ЛС] 

ktest0

Корсар

33

Пост 28-Сен-2015 23:03 (спустя 3 дня)

[Q] 

Как всегда - торрент есть, раздачи нет... ёп
[Профиль]  [ЛС] 

kugesan ®

56691

Пост 07-Окт-2015 22:47 (спустя 8 дней)

[Q] 

Добавлена двадцатая, заключительная, серия тринадцатого сезона

_________________

В мире две бесконечности: вселенная и человеческая глупость - Альберт Эйнштен
«Можно вытащить человека из грязи, но нельзя вытащить грязь из человека»!
[Профиль]  [ЛС] 

Пост 08-Окт-2015 01:09 (спустя 2 часа 22 минуты)

Топик был перенесен из форума Сериалы в эфире в форум Отечественные сериалы
Андря
 

Prorok155

Корсар

Пост 10-Окт-2015 12:19 (спустя 2 дня 13 часов)

[Q] 

Спасибо. Лови бочку
[Профиль]  [ЛС] 

янка-сан

Гроза морей

Пост 18-Дек-2015 22:15 (спустя 2 месяца 8 дней)

[Q] 

спасибо Лови бочку
[Профиль]  [ЛС] 

gelexi

Лоцман

60

Пост 09-Окт-2016 22:26 (спустя 9 месяцев 22 дня)

[Q] 

Дайте раздачу! очень прошу!
[Профиль]  [ЛС] 
Показать сообщения:    
Ответить на тему

Текущее время: Сегодня 09:47

Часовой пояс: GMT + 4



Вы не можете начинать темы
Вы не можете отвечать на сообщения
Вы не можете редактировать свои сообщения
Вы не можете удалять свои сообщения
Вы не можете голосовать в опросах
Вы не можете прикреплять файлы к сообщениям
Вы не можете скачивать файлы

▼ Вниз