ML
     
  Уважаемый Гость!
Вы можете поддержать проект и зарегистрироваться у наших партнеров - онлайн-стратегия MyLands. При регистрации в игре Вы получите код, который сможете активировать после регистрации на pirat.ca и получить 1000 дублонов.

Ваш код:
193c38d0130f05c24de871678ea3ac181461757d
 
     

Рэкет / Сезон: 1 / Серии: 1-5 из 5 (Эрнест Ясан) [1992 г., боевик, криминал, TVRip] [Sub (Rus)]

Ответить на тему
 
Автор
Сообщение

Пост 02-Июл-2014 11:11

[Q] 

Sigel-1

Шкипер

-Рэкет -- Производство: Россия
Жанр: боевик, криминал
Год выпуска: 1992 г.
Продолжительность: 04:46:09
Режиссер: Эрнест Ясан-В ролях: Владимир Ерёмин, Сергей Шкаликов, Наталья Данилова, Анна Самохина, Ирина Климова, Виктор Ильичев, Александр Демьяненко, В. Юматов, Ваня Мережко-Описание: Многосерийный телевизионный фильм рассказывает о молодом тележурналисте, ведущем расследование убийства "крестного отца", тем самым привлекая к себе внимание мафиозно-коррумпированных структур высших эшелонов власти. Делает он и острые сюжеты о рэкете, что весьма не нравится этим крутым ребятам. Продуманный сценарий Виктора Мережко и Эрнеста Ясана, приличная игра актеров. Анна Самохина очень хороша и внешне, и как актриса.
Прототип главного героя - известный телезрителям Александр Невзоров. В свое время многих подкупила его бесстрастная манера ведущего, кожаная куртка, пронзительный взгляд и на прощание - улыбка сквозь зубы. Впрочем, история эта от начала до конца вымышленная и не претендует на полное тождество героя с известным тележурналистом...-
Качество видео: TVRip
Контейнер: AVI
Видео кодек: XviD
Аудио кодек: AC3
Видео: MPEG-4 Visual at 1340 Кбит/сек : 704 x 432 at 20.000 fps, 0.220 Бит/Пиксели*Кадры
Аудио: AC-3 at 384 Кбит/сек : 2 канала, 48,0 КГц
Cубтитры: Отсутствуют
Общее
Полное имя : D:\уторент\раздачи\Рэкет\1.avi
Формат : AVI
Формат/Информация : Audio Video Interleave
Размер файла : 697 Мбайт
Продолжительность : 56 м.
Общий поток : 1732 Кбит/сек
Программа кодирования : VirtualDubMod 1.5.10.2 (build 2540/release)
Библиотека кодирования : VirtualDubMod build 2540/release
Видео
Идентификатор : 0
Формат : MPEG-4 Visual
Профиль формата : Advanced [email protected]
Параметр BVOP формата : 2
Параметр QPel формата : Нет
Параметр GMC формата : Без точки перехода
Параметр матрицы формата : Default (MPEG)
Режим смешивания : Сжатый битовый поток
Идентификатор кодека : XVID
Идентификатор кодека/Подсказка : XviD
Продолжительность : 56 м.
Битрейт : 1340 Кбит/сек
Ширина : 704 пикселя
Высота : 432 пикселя
Соотношение сторон : 16:10
Частота кадров : 20,000 кадров/сек
Цветовое пространство : YUV
Субдискретизация насыщенности : 4:2:0
Битовая глубина : 8 бит
Тип развёртки : Прогрессивная
Метод сжатия : С потерями
Бит/(Пиксели*Кадры) : 0.220
Размер потока : 539 Мбайт (77%)
Библиотека кодирования : XviD 1.1.2 (UTC 2006-11-01)
Аудио
Идентификатор : 1
Формат : AC-3
Формат/Информация : Audio Coding 3
Расширение режима : CM (complete main)
Параметр Endianness формата : Big
Идентификатор кодека : 2000
Продолжительность : 56 м.
Вид битрейта : Постоянный
Битрейт : 384 Кбит/сек
Каналы : 2 канала
Расположение каналов : Front: L R
Частота : 48,0 КГц
Битовая глубина : 16 бит
Метод сжатия : С потерями
Размер потока : 154 Мбайт (22%)
Выравнивание : Разделение по промежуткам
Продолжительность промежутка : 50 мс. (1,00 видеокадр)
Время предзагрузки промежутка : 500 мс.
Download / Скачать

Хотите скачать бесплатно? Зарегистрируйтесь на сайте (ссылка на регистрацию). Pirat.ca - самый быстрый торрент трекер в рунете!

Как скачивать  ·   Что такое торрент  ·   Рейтинг и ограничения

girls24.org

Канонир

Пост 23-Июл-2014 18:31 (спустя 21 день)

[Q] 

Дайте скорости!
[Профиль]  [ЛС] 
Показать сообщения:    
Ответить на тему

Текущее время: Сегодня 18:07

Часовой пояс: GMT + 4



Вы не можете начинать темы
Вы не можете отвечать на сообщения
Вы не можете редактировать свои сообщения
Вы не можете удалять свои сообщения
Вы не можете голосовать в опросах
Вы не можете прикреплять файлы к сообщениям
Вы не можете скачивать файлы

▼ Вниз