ML
     
  Уважаемый Гость!
Вы можете поддержать проект и зарегистрироваться у наших партнеров - онлайн-стратегия MyLands. При регистрации в игре Вы получите код, который сможете активировать после регистрации на pirat.ca и получить 1000 дублонов.

Ваш код:
fcd618d94adc1456bccbde5047c9cd0930e4ae4d
 
     

Департамент / Серии: 1-16 из 16 (Армен Арутюнян) [2013 г., криминал, WEB-Rip]

Ответить на тему
 
Автор
Сообщение

Пост 02-Июл-2014 21:51

[Q] 

GMCJimmy

Легенда

-Департамент-- Производство: Россия
Жанр: криминал
Год выпуска: 2013 г.
Продолжительность: ~ 00:49:00 серия
Режиссер: Армен Арутюнян-В ролях: Семён Шкаликов, Дарья Мороз, Сергей Угрюмов, Андрей Соколов, Виктория Толстоганова, Сергей Газаров, Михаил Трухин, Тимофей Трибунцев, Евгений Миллер, Михаил Ефремов-Описание: Расследованием преступлений, совершаемых сотрудниками правоохранительных органов,занимается специальная служба — главное управление собственной безопасности. Их работа точно такая же, как и у остальных «обычных» полицейских: сбор данных, оперативная разработка, слежка, прослушка, опросы свидетелей, возбуждение уголовных дел… с одной лишь разницей — сотрудники собственной безопасности работают против своих коллег. Их никто не любит, их только боятся. Они — гласно внедренный в правоохранительную систему страны чужеродный элемент.
Несколько офицеров собственной безопасности работают в атмосфере постоянного недоверия и подозрительности, где каждый шаг нужно просчитывать и продумывать со всех сторон, действовать максимально деликатно и в то же время эффективно. Их успехи только увеличивают пропасть между ними и обычными людьми в форме. В такой ситуации тотального отчуждения коллеги сплачиваются еще сильнее, становятся настоящей командой, без слабых мест…-Качество видео: WEB-Rip
Контейнер: AVI
Видео кодек: XviD
Аудио кодек: AC3
Видео: 704x368, 1499 kbps, 25,000 fps, 0.231 Бит/Пиксел
Аудио: 192 kbps, 2 ch, 48,0kHz
Cубтитры: отсутствуют
Формат : AVI
Формат/Информация : Audio Video Interleave
Размер файла : 601 Мбайт
Продолжительность : 49 м.
Общий поток : 1701 Кбит/сек
Программа кодирования : VirtualDubMod 1.5.10.3 | www.virtualdub-fr.org || (build 2550/release)
Библиотека кодирования : VirtualDubMod build 2550/release
Видео
Идентификатор : 0
Формат : MPEG-4 Visual
Профиль формата : Advanced [email protected]
Параметр BVOP формата : 1
Параметр QPel формата : Нет
Параметр GMC формата : Без точки перехода
Параметр матрицы формата : Выборочная
Идентификатор кодека : XVID
Идентификатор кодека/Подсказка : XviD
Продолжительность : 49 м.
Битрейт : 1499 Кбит/сек
Ширина : 704 пикселя
Высота : 368 пикселей
Соотношение сторон : 1,913
Частота кадров : 25,000 кадров/сек
Цветовое пространство : YUV
Субдискретизация насыщенности : 4:2:0
Битовая глубина : 8 бит
Тип развёртки : Прогрессивная
Метод сжатия : С потерями
Бит/(Пиксели*Кадры) : 0.231
Размер потока : 529 Мбайт (88%)
Библиотека кодирования : XviD 1.2.1 (UTC 2008-12-04)
Аудио
Идентификатор : 1
Формат : AC-3
Формат/Информация : Audio Coding 3
Расширение режима : CM (complete main)
Параметр Endianness формата : Big
Идентификатор кодека : 2000
Продолжительность : 49 м.
Вид битрейта : Постоянный
Битрейт : 192 Кбит/сек
Каналы : 2 канала
Расположение каналов : Front: L R
Частота : 48,0 КГц
Битовая глубина : 16 бит
Метод сжатия : С потерями
Размер потока : 67,8 Мбайт (11%)
Выравнивание : Разделение по промежуткам
Продолжительность промежутка : 40 мс. (1,00 видеокадр)
Время предзагрузки промежутка : 500 мс.
Download / Скачать

Хотите скачать бесплатно? Зарегистрируйтесь на сайте (ссылка на регистрацию). Pirat.ca - самый быстрый торрент трекер в рунете!

Как скачивать  ·   Что такое торрент  ·   Рейтинг и ограничения



Последний раз редактировалось: GMCJimmy (2014-07-03 10:22), всего редактировалось 1 раз

Victorsalata

Корсар

Пост 03-Июл-2014 16:59 (спустя 19 часов)

[Q] 

Сюжет сериала интересный. Можно смотреть и в дальнейшем, после показа на TV.
[Профиль]  [ЛС] 

s_s

Гроза морей

Пост 27-Июл-2014 04:14 (спустя 23 дня)

[Q] 

не хотел качать пока не закончится, а тут вроде как 1 сезон и хватит... спасиб:)

_________________
в себе самом добра со злом
[Профиль]  [ЛС] 

torr901

Корсар

Пост 28-Июл-2014 21:39 (спустя 1 день 17 часов)

[Q] 

Хороший фильм
[Профиль]  [ЛС] 

pp2141

Гроза морей

Пост 21-Ноя-2014 17:18 (спустя 3 месяца 23 дня)

[Q] 

Спасибо Лови бочку
[Профиль]  [ЛС] 
Показать сообщения:    
Ответить на тему

Текущее время: Сегодня 12:52

Часовой пояс: GMT + 4



Вы не можете начинать темы
Вы не можете отвечать на сообщения
Вы не можете редактировать свои сообщения
Вы не можете удалять свои сообщения
Вы не можете голосовать в опросах
Вы не можете прикреплять файлы к сообщениям
Вы не можете скачивать файлы

▼ Вниз