ML
     
  Уважаемый Гость!
Вы можете поддержать проект и зарегистрироваться у наших партнеров - онлайн-стратегия MyLands. При регистрации в игре Вы получите код, который сможете активировать после регистрации на pirat.ca и получить 1000 дублонов.

Ваш код:
4fbd9898b6f10799a3e8edf60f31febd2bc15453
 
     

Брат за брата 3 / Сезон: 3 / Серии: 1-30 из 30 (Олег Туранский, Олег Филипенко) [2014 г., драма, криминал, SATRip]

Ответить на тему
 
Автор
Сообщение

Пост 11-Сен-2014 22:57

[Q] 

Goodwill

-Брат за брата 3-- Производство: Россия, Украина, Star Media
Жанр: драма, криминал
Год выпуска: 2014 г.
Продолжительность: 00:45:30
Мировая премьера: 2014
Режиссер: Олег Туранский, Олег Филипенко-В ролях: Ярослав Бойко, Владимир Стеклов, Константин Стрельников, Егор Клейменов, Анна Казючиц, Анатолий Зиновенко, Дмитрий Суржиков, Анна Донченко, Алексей Тритенко, Михаил Жонин, Владимир Осадчий, Станислав Боклан, Владимир Горянский, Владимир Ямненко, Михаил Романов, Валерий Сковронский, Валентин Касьян, Алексей Барбинов, Евгений Арабаджийский, Алла Мартынюк, Олег Масленников, Константин Чернокрылюк, Римма Зюбина, Тамара Яценко, Андрей Исаенко, Сергей Калантай, Анатолий Приймак, Ирина Барбинова, Алексей Цуркан, Сергей Шляхтюк, Сергей Коршиков, Владимир Беляев, Александра Киреева-Описание: Такие кварталы, как Гарлем, раньше можно было увидеть только в голливудских боевиках. Никто не думал, что они могут появиться и у нас. Гарлем – настоящее гетто в одном из крупных российских городов. Здесь почти открыто торгуют наркотиками и перепродают краденое. Школьные учителя боятся своих учеников, ведь те способны убить за плохую оценку. Местные стражи правопорядка не рискуют в позднее время суток лишний раз появляться на его улицах, а жители так привыкли к установленным правилам игры, что кажется, ничто и никогда не сможет заставить их иначе смотреть на происходящее вокруг.-
Качество видео: SATRip
Контейнер: AVI
Видео кодек: XviD
Аудио кодек: AC3
Видео: 720x448 (1.61:1), 25 fps, XviD build 50 ~1799 kbps avg, 0.22 bit/pixel
Аудио: 48 kHz, MPEG Layer 3, 2 ch, ~128.00 kbps avg
Cубтитры: отсутствуют
Общее
Полное имя : W:\Brat.za.brata-3.2014.SATRip\Brat.za.brata-3.Seriya.02.2014.SATRip.avi
Формат : AVI
Формат/Информация : Audio Video Interleave
Размер файла : 578 Мбайт
Продолжительность : 41 м.
Общий поток : 1938 Кбит/сек
Программа кодирования : VirtualDubMod 1.5.10.3 | www.virtualdub-fr.org || (build 2550/release)
Библиотека кодирования : VirtualDub build 32507/release
Видео
Идентификатор : 0
Формат : MPEG-4 Visual
Профиль формата : Advanced [email protected]
Параметр BVOP формата : 2
Параметр QPel формата : Нет
Параметр GMC формата : Без точки перехода
Параметр матрицы формата : Default (MPEG)
Идентификатор кодека : XVID
Идентификатор кодека/Подсказка : XviD
Продолжительность : 41 м.
Битрейт : 1800 Кбит/сек
Ширина : 720 пикс.
Высота : 448 пикс.
Соотношение сторон : 1,607
Частота кадров : 25,000 кадр/сек
Цветовое пространство : YUV
Подвыборка цветности : 4:2:0
Битовая глубина : 8 бит
Тип развёртки : Прогрессивная
Метод сжатия : С потерями
Бит/(Пиксели*Кадры) : 0.223
Размер потока : 537 Мбайт (93%)
Библиотека кодирования : XviD 1.2.1 (UTC 2008-12-04)
Аудио
Идентификатор : 1
Формат : MPEG Audio
Версия формата : Version 1
Профиль формата : Layer 3
Режим : Joint stereo
Идентификатор кодека : 55
Идентификатор кодека/Подсказка : MP3
Продолжительность : 41 м.
Вид битрейта : Постоянный
Битрейт : 128 Кбит/сек
Канал(ы) : 2 канала(ов)
Частота : 48,0 КГц
Метод сжатия : С потерями
Размер потока : 38,2 Мбайт (7%)
Выравнивание : Соединение по промежуткам
Продолжительность промежутка : 40 мс. (1,00 видеокадр)
Время предзагрузки промежутка : 504 ms
Библиотека кодирования : LAME3.99r
Настройки программы : -m j -V 4 -q 2 -lowpass 17 -b 128
-
Раздача ведётся путём добавления новых серий; при каждом добавлении создаётся новый торрент.
Чтобы начать докачку новой серии, пользователям необходимо сделать следующее:
1. остановить скачивание,
2. удалить старый торрент у себя из клиента (старые серии удалять не надо),
3. скачать новый торрент и запустить его у себя в клиенте вместо старого, при этом указать клиенту путь в старую папку, куда и должно происходить скачивание новых серий.
Ваш клиент при этом должен произвести хеширование (проверку) старой папки (если не производит сам - помогите ему сделать это), и будет докачивать только те серии которых у вас ещё нет. Старые серии при этом не удаляются, а продолжают раздаваться!
Eсли вы уже удалили старые серии, то предотвратить повторную закачку старых серий можно, отжав галочку в соответствующих местах при запуске нового торрента. По возможности, желательно не удалять старые серии как можно дольше, чтобы релизёр не столько продолжал раздавать старые серии, а смог сконцентрироваться на новых.
Совет для тех, кто не хочет ждать перехеширования:
Создайте ещё одну папку рядом с папкой сериала (рядом, а не в ней!!!). Каждую новую серию после удачной загрузки копируйте в новую папку так чтобы ваша основная папка всегда была пуста. Когда ваш новый торрент предложит вам закачать все файлы, выберете только последнюю. Для сидирования же укажите адрес новой папки.
Как закачать отдельный файл из торрента или докачать ранее пропущенные файлы торрента!
1. Открыть торрент
2. Снять галки с тех файлов торрента, которые мы не хотим закачивать. Оставляем только на нужных нам файлах (файле).
3. Нажать О.К.
В клиенте utorrent
Инструкция
1) Открыть торрент

2) Снять галки с тех файлов торрента, которые мы не хотим закачивать:
* либо вручную, снимая с каждого файла галку( скрин №1)
* либо, нажав кнопку "Снять метки (Select None)", сняв сразу со всех файлов(скрин №2)
№1

№2

Оставляем только на нужных нам файлах (файле).

3)Нажать О.К
Download / Скачать

Хотите скачать бесплатно? Зарегистрируйтесь на сайте (ссылка на регистрацию). Pirat.ca - самый быстрый торрент трекер в рунете!

Как скачивать  ·   Что такое торрент  ·   Рейтинг и ограничения



Последний раз редактировалось: Goodwill (2014-09-19 21:07), всего редактировалось 5 раз(а)

Пост 11-Сен-2014 23:02 (спустя 5 минут)

Топик был перенесен из форума Отечественные сериалы (Трюм) в форум Сериалы в эфире
kugesan
 

Goodwill ®

3419

Пост 15-Сен-2014 19:07 (спустя 3 дня)

[Q] 

Последняя 30 серия 3 сезона

_________________
Неведение - источник зла.
Торрентом не пользуюсь, нет необходимости.
[Профиль]  [ЛС] 

Alexlogin

Гроза морей

105

Пост 19-Сен-2014 22:01 (спустя 4 дня)

[Q] 

Спасибо автору посмотрим
[Профиль]  [ЛС] 

FatestaR

150

Пост 21-Сен-2014 20:41 (спустя 1 день 22 часа)

[Q] 

Скачал, встал на раздачу
Лови бочку

_________________


[Профиль]  [ЛС] 
Показать сообщения:    
Ответить на тему

Текущее время: Сегодня 19:55

Часовой пояс: GMT + 4



Вы не можете начинать темы
Вы не можете отвечать на сообщения
Вы не можете редактировать свои сообщения
Вы не можете удалять свои сообщения
Вы не можете голосовать в опросах
Вы не можете прикреплять файлы к сообщениям
Вы не можете скачивать файлы

▼ Вниз