ML
     
  Уважаемый Гость!
Вы можете поддержать проект и зарегистрироваться у наших партнеров - онлайн-стратегия MyLands. При регистрации в игре Вы получите код, который сможете активировать после регистрации на pirat.ca и получить 1000 дублонов.

Ваш код:
0ea1bf889af42fca5f67d0a391efb3400850ad7c
 
     

Григорий Р. (Распутин) / Сезон 1 / Серии: 8 из 8 (Андрей Малюков) [2014г. драма, история, ..., SATRip]

Ответить на тему
 
Автор
Сообщение

Пост 05-Окт-2014 19:16

[Q] 

kugesan

Григорий Р. (Распутин) - Русское название: Григорий Р.
Страна: Россия
Год выпуска: 2014
Жанр: драма, история-Премьера (РФ): 11 сентября 2014-Режиссер: Андрей Малюков
В главных ролях: Владимир Машков, Андрей Смоляков, Екатерина Климова, Ингеборга Дапкунайте, Валерий Дегтярь, Никита Ефремов, Владимир Кошевой, Борис Каморзин, Таисия Вилкова, Михаил Елисеев, Анна Дюкова, Сергей Угрюмов, Леонид Мозговой, Петар Зекавица, Мария Бурляева, Наталья Суркова, Константин Воробьёв, Юрий Орлов (II), Юрий Ицков, Игорь Лепихин, Виталий Кищенко, Илья Шакунов, Андрей Зибров, Алексей Морозов (II), Юрий Чурсин, Саша Дробитько, Стефан Отто, Роман Агеев, Андрей Полищук, Паулина Андреева, Анастасия Микульчина, Алиса Горшкова, Серафима Низовская-Описание фильма:
Каким образом неграмотный сибирский крестьянин смог стать вторым я последней русской императрицы? Неужели дело только в том, что он спасал больного наследника престола, или была иная причина удивительной веры царской семьи в этого человека? Григория Распутина убили в декабре 1916 года, а в феврале 1917-го в России рухнуло самодержавие. По указу Временного правительства создается государственная комиссия по расследованию убийства. Следователь Генрих Николаевич Свиттен допрашивает более 150 человек, проходящих свидетелями по этому делу. Он по крупицам собирает не только информацию о той страшной ночи, но и факты из жизни старца, отсеивая при этом слухи и домыслы о его деяниях, чтобы попытаться сложить реальную картину, кем же на самом деле был могущественный временщик Григорий Ефимович Распутин.-Сезон: 1
Серии: 8 из 8 серий
Продолжительность: ~ 00:40:00 мин серия-Качество видео: SATRip
Формат: AVI
Видеокодек: XviD
Аудиокодек: Mp3
Видео: MPEG-4 Visual at 1500 Кбит/сек: 704 x 400 (1.760) at 25.000 fps, 0.21 Бит/Пиксели
Аудио: MPEG Audio at 128 Кбит/сек: 2 канала, 48,0 КГц
- -
Код:
Общее
Полное имя                               : E:\_Сериалы\_Сериалы\Григорий_Распутин-01_SATRip\Распутин-01_SATRip.avi
Формат                                   : AVI
Формат/Информация                        : Audio Video Interleave
Размер файла                             : 475 Мбайт
Продолжительность                        : 40 м.
Общий поток                              : 1638 Кбит/сек
Программа кодирования                    : VirtualDubMod 1.5.10.3 | www.virtualdub-fr.org || (build 2550/release)
Библиотека кодирования                   : VirtualDubMod build 2550/release
Видео
Идентификатор                            : 0
Формат                                   : MPEG-4 Visual
Профиль формата                          : Advanced [email protected]
Параметр BVOP формата                    : 2
Параметр QPel формата                    : Нет
Параметр GMC формата                     : Без точки перехода
Параметр матрицы формата                 : Default (H.263)
Идентификатор кодека                     : XVID
Идентификатор кодека/Подсказка           : XviD
Продолжительность                        : 40 м.
Битрейт                                  : 1500 Кбит/сек
Ширина                                   : 720 пикселей
Высота                                   : 400 пикселей
Соотношение сторон                       : 16:9
Частота кадров                           : 25,000 кадров/сек
Цветовое пространство                    : YUV
Субдискретизация насыщенности            : 4:2:0
Битовая глубина                          : 8 бит
Тип развёртки                            : Прогрессивная
Метод сжатия                             : С потерями
Бит/(Пиксели*Кадры)                      : 0.208
Размер потока                            : 435 Мбайт (92%)
Библиотека кодирования                   : XviD 1.2.1 (UTC 2008-12-04)
Аудио
Идентификатор                            : 1
Формат                                   : MPEG Audio
Версия формата                           : Version 1
Профиль формата                          : Layer 3
Режим                                    : Joint stereo
Расширение режима                        : MS Stereo
Идентификатор кодека                     : 55
Идентификатор кодека/Подсказка           : MP3
Продолжительность                        : 40 м.
Вид битрейта                             : Постоянный
Битрейт                                  : 128 Кбит/сек
Каналы                                   : 2 канала
Частота                                  : 48,0 КГц
Метод сжатия                             : С потерями
Размер потока                            : 37,2 Мбайт (8%)
Выравнивание                             : Соединение по промежуткам
Продолжительность промежутка             : 40  мс. (1,00 видеокадр)
Время предзагрузки промежутка            : 504  мс.
Библиотека кодирования                   : LAME3.99r
Настройки программы                      : -m j -V 4 -q 9 -lowpass 17 -b 128
-
-Скриншоты:
-
-
1. Открыть торрент
2. Снять галки с тех файлов торрента, которые мы не хотим закачивать. Оставляем только на нужных нам файлах (файле).
3. Нажать О.К.
В клиенте utorrent
Инструкция
1) Открыть торрент

2) Снять галки с тех файлов торрента, которые мы не хотим закачивать:
* либо вручную, снимая с каждого файла галку( скрин №1)
* либо, нажав кнопку "Снять метки (Select None)", сняв сразу со всех файлов(скрин №2)
№1

№2

Оставляем только на нужных нам файлах (файле).

3)Нажать О.К
-
Download / Скачать

Хотите скачать бесплатно? Зарегистрируйтесь на сайте (ссылка на регистрацию). Pirat.ca - самый быстрый торрент трекер в рунете!

Как скачивать  ·   Что такое торрент  ·   Рейтинг и ограничения

Vintorezov REG 39

Легенда

176

Пост 07-Окт-2014 19:20 (спустя 2 дня)

[Q] 

спасибо за сериальчик Раздающему респект!
[Профиль]  [ЛС] 
Показать сообщения:    
Ответить на тему

Текущее время: Сегодня 00:33

Часовой пояс: GMT + 4



Вы не можете начинать темы
Вы не можете отвечать на сообщения
Вы не можете редактировать свои сообщения
Вы не можете удалять свои сообщения
Вы не можете голосовать в опросах
Вы не можете прикреплять файлы к сообщениям
Вы не можете скачивать файлы

▼ Вниз