ML
     
  Уважаемый Гость!
Вы можете поддержать проект и зарегистрироваться у наших партнеров - онлайн-стратегия MyLands. При регистрации в игре Вы получите код, который сможете активировать после регистрации на pirat.ca и получить 1000 дублонов.

Ваш код:
db0e0ad91548759ffeb9bb88bed405e1a4b3c165
 
     

Хиромант / Сезон: 1 / Серии: 1-10 из 10 (Антон Борматов) [2005 г., триллер, DVDRip]

Ответить на тему
 
Автор
Сообщение

Пост 09-Окт-2014 14:32

[Q] 

Мархуз

-Хиромант -- Производство: Россия, кинокомпания Friends Corporation
Жанр: триллер
Год выпуска: 2005 г.
Продолжительность: 10 х 00:47:00
Режиссер: Антон Борматов-В ролях: Юрий Чурсин, Сергей Астахов, Ксения Буравская, Екатерина Стулова, Сергей Угрюмов, Максим Лагашкин, Петр Зайченко, Максим Заморин, Александр Яцко, Надежда Маркина, Александр Робак, Дмитрий Швадченко, Олег Васильков-Описание: Студент Ярославского института, Сергей Рябинин, на похоронах своего отца, которого он прежде никогда не видел, встречает незнакомого человека, который представляется другом покойного. Незнакомец передает Сергею дневник отца и древнюю книгу по хиромантии. Получив такое странное наследство, Сергей пока не знает, что оно коренным образом изменит его жизнь и принесет много печали…-Качество видео: DVDRip
Контейнер: AVI
Видео кодек: XviD
Аудио кодек: MP3
Видео: 704x416; 1168 kbps; 25 fps; 0.160 bit/pixel
Аудио: 128 kbps; 2 ch; 48 kHz
Cубтитры: отсутствуют
1серия:
General
Complete name : E:\Torrent\Xiromant_(1 sezon)_[Pirat.ca].torrent\1 серия.avi
Format : AVI
Format/Info : Audio Video Interleave
File size : 440 MiB
Duration : 47mn 11s
Overall bit rate : 1 303 Kbps
Writing application : VirtualDubMod 1.5.4.1 (build 2178/release)
Writing library : VirtualDubMod build 2178/release
Video
ID : 0
Format : MPEG-4 Visual
Format profile : Advanced [email protected]
Format settings, BVOP : 1
Format settings, QPel : No
Format settings, GMC : No warppoints
Format settings, Matrix : Custom
Codec ID : XVID
Codec ID/Hint : XviD
Duration : 47mn 11s
Bit rate : 1 168 Kbps
Width : 704 pixels
Height : 416 pixels
Display aspect ratio : 1.692
Frame rate : 25.000 fps
Color space : YUV
Chroma subsampling : 4:2:0
Bit depth : 8 bits
Scan type : Progressive
Compression mode : Lossy
Bits/(Pixel*Frame) : 0.160
Stream size : 394 MiB (90%)
Writing library : XviD 1.2.1 (UTC 2008-12-04)
Audio
ID : 1
Format : MPEG Audio
Format version : Version 1
Format profile : Layer 3
Mode : Joint stereo
Mode extension : MS Stereo
Codec ID : 55
Codec ID/Hint : MP3
Duration : 47mn 11s
Bit rate mode : Constant
Bit rate : 128 Kbps
Channel(s) : 2 channels
Sampling rate : 48.0 KHz
Compression mode : Lossy
Stream size : 43.2 MiB (10%)
Alignment : Aligned on interleaves
Interleave, duration : 80 ms (2.00 video frames)
Interleave, preload duration : 504 ms
Writing library : LAME3.98r
Encoding settings : -m j -V 4 -q 2 -lowpass 17 -b 128
Раздача с 14.00 до 2.30 (время московское)
Download / Скачать

Хотите скачать бесплатно? Зарегистрируйтесь на сайте (ссылка на регистрацию). Pirat.ca - самый быстрый торрент трекер в рунете!

Как скачивать  ·   Что такое торрент  ·   Рейтинг и ограничения

Пост 09-Окт-2014 17:22 (спустя 2 часа 50 минут)

Топик был перенесен из форума Отечественные сериалы (Трюм) в форум Отечественные сериалы
kugesan
 

Alexlogin

Гроза морей

105

Пост 09-Окт-2014 17:52 (спустя 3 часа)

[Q] 

Спасибо качаем
[Профиль]  [ЛС] 

Victorsalata

Корсар

Пост 09-Окт-2014 18:48 (спустя 55 минут)

[Q] 

Посмотрим, спасибо.
[Профиль]  [ЛС] 

igormogilev

Флибустьер

5112

Пост 09-Окт-2014 20:23 (спустя 1 час 35 минут)

[Q] 

Спасибо!!! Спасибо.
[Профиль]  [ЛС] 

Prorok155

Корсар

Пост 24-Окт-2015 09:37 (спустя 1 год)

[Q] 

Спасибо.Посмотрим.
[Профиль]  [ЛС] 

янка-сан

Гроза морей

Пост 18-Дек-2015 22:13 (спустя 1 месяц 25 дней)

[Q] 

благодарю Лови бочку
[Профиль]  [ЛС] 
Показать сообщения:    
Ответить на тему

Текущее время: Сегодня 08:06

Часовой пояс: GMT + 4



Вы не можете начинать темы
Вы не можете отвечать на сообщения
Вы не можете редактировать свои сообщения
Вы не можете удалять свои сообщения
Вы не можете голосовать в опросах
Вы не можете прикреплять файлы к сообщениям
Вы не можете скачивать файлы

▼ Вниз