ML
     
  Уважаемый Гость!
Вы можете поддержать проект и зарегистрироваться у наших партнеров - онлайн-стратегия MyLands. При регистрации в игре Вы получите код, который сможете активировать после регистрации на pirat.ca и получить 1000 дублонов.

Ваш код:
a261790f23fb05d13d060bdee9cb70d1451a6d3d
 
     

Диверсант / Сезон: 1 / Серии: 1-4 из 4 (Андрей Малюков) [2004 г., военный, DVDRip]

Ответить на тему
 
Автор
Сообщение

Пост 12-Окт-2014 22:20

[Q] 

Мархуз

-Диверсант-- Производство: Россия, Продюсерская компания "Слово"
Жанр: военный
Год выпуска: 2004 г.
Продолжительность: 4 х 00:51:00
Режиссер: Андрей Малюков-В ролях: Алексей Бардуков, Владислав Галкин, Кирилл Плетнев, Александр Лыков, Вилле Хаапасало, Владимир Меньшов, Михаил Ефремов, Андрей Краско, Ксения Кузнецова, Игорь Ливанов-Описание: 1942 год. Молодые выпускники разведшколы, 16-летний Леня Филатов и 20-летний Алексей Бобриков, направляются в расположение части на попутном грузовике. Оба молоды и полны жизни. Мечтают о победе и о том, что закончат войну полковниками. Но вдруг - вражеский обстрел. В результате перестрелки с немцами в живых остаются Леня Филатов и сержант-попутчик Алеша. Сержант просит Филатова отдать ему красноармейскую книжку и все документы погибшего Бобрикова, чтобы "его имя продолжало бить фашистов". Потрясенный смертью товарища, Леня не в состоянии понять, насколько странно звучит эта просьба, и чем его собственное согласие может обернуться впоследствии…-Качество видео: DVDRip
Контейнер: AVI
Видео кодек: XviD
Аудио кодек: MP3
Видео: 704x416; 1521 kbps; 25 fps; 0.208 bit/pixel
Аудио: 128 kbps; 2 ch; 48 kHz
Cубтитры: отсутствуют
1серия:
General
Complete name : E:\Torrent\Diversant_(1 sezon)_[Pirat.ca].torrent\1 серия.avi
Format : AVI
Format/Info : Audio Video Interleave
File size : 619 MiB
Duration : 52mn 8s
Overall bit rate : 1 659 Kbps
Writing application : VirtualDubModRus 1.5.10.2 (build 2542/release)
Writing library : VirtualDub build 35390/release
Video
ID : 0
Format : MPEG-4 Visual
Format profile : Advanced [email protected]
Format settings, BVOP : 2
Format settings, QPel : No
Format settings, GMC : No warppoints
Format settings, Matrix : Default (H.263)
Muxing mode : Packed bitstream
Codec ID : XVID
Codec ID/Hint : XviD
Duration : 52mn 8s
Bit rate : 1 521 Kbps
Width : 704 pixels
Height : 416 pixels
Display aspect ratio : 1.692
Frame rate : 25.000 fps
Color space : YUV
Chroma subsampling : 4:2:0
Bit depth : 8 bits
Scan type : Progressive
Compression mode : Lossy
Bits/(Pixel*Frame) : 0.208
Stream size : 567 MiB (92%)
Writing library : XviD 64
Audio
ID : 1
Format : MPEG Audio
Format version : Version 1
Format profile : Layer 3
Mode : Joint stereo
Mode extension : MS Stereo
Codec ID : 55
Codec ID/Hint : MP3
Duration : 52mn 8s
Bit rate mode : Constant
Bit rate : 128 Kbps
Channel(s) : 2 channels
Sampling rate : 48.0 KHz
Compression mode : Lossy
Stream size : 47.7 MiB (8%)
Alignment : Aligned on interleaves
Interleave, duration : 40 ms (1.00 video frame)
Interleave, preload duration : 504 ms
2серия:
General
Complete name : E:\Torrent\Diversant_(1 sezon)_[Pirat.ca].torrent\2 серия.avi
Format : AVI
Format/Info : Audio Video Interleave
File size : 565 MiB
Duration : 49mn 49s
Overall bit rate : 1 586 Kbps
Writing application : VirtualDubModRus 1.5.10.2 (build 2542/release)
Writing library : VirtualDub build 35390/release
Video
ID : 0
Format : MPEG-4 Visual
Format profile : Advanced [email protected]
Format settings, BVOP : 2
Format settings, QPel : No
Format settings, GMC : No warppoints
Format settings, Matrix : Default (H.263)
Muxing mode : Packed bitstream
Codec ID : XVID
Codec ID/Hint : XviD
Duration : 49mn 49s
Bit rate : 1 448 Kbps
Width : 704 pixels
Height : 416 pixels
Display aspect ratio : 1.692
Frame rate : 25.000 fps
Color space : YUV
Chroma subsampling : 4:2:0
Bit depth : 8 bits
Scan type : Progressive
Compression mode : Lossy
Bits/(Pixel*Frame) : 0.198
Stream size : 516 MiB (91%)
Writing library : XviD 64
Audio
ID : 1
Format : MPEG Audio
Format version : Version 1
Format profile : Layer 3
Mode : Joint stereo
Mode extension : MS Stereo
Codec ID : 55
Codec ID/Hint : MP3
Duration : 49mn 49s
Bit rate mode : Constant
Bit rate : 128 Kbps
Channel(s) : 2 channels
Sampling rate : 48.0 KHz
Compression mode : Lossy
Stream size : 45.6 MiB (8%)
Alignment : Aligned on interleaves
Interleave, duration : 40 ms (1.00 video frame)
Interleave, preload duration : 504 ms
3серия:
General
Complete name : E:\Torrent\Diversant_(1 sezon)_[Pirat.ca].torrent\3 серия.avi
Format : AVI
Format/Info : Audio Video Interleave
File size : 453 MiB
Duration : 51mn 48s
Overall bit rate : 1 222 Kbps
Writing application : VirtualDubModRus 1.5.10.2 (build 2542/release)
Writing library : VirtualDub build 35390/release
Video
ID : 0
Format : MPEG-4 Visual
Format profile : Advanced [email protected]
Format settings, BVOP : 2
Format settings, QPel : No
Format settings, GMC : No warppoints
Format settings, Matrix : Default (H.263)
Muxing mode : Packed bitstream
Codec ID : XVID
Codec ID/Hint : XviD
Duration : 51mn 48s
Bit rate : 1 084 Kbps
Width : 704 pixels
Height : 416 pixels
Display aspect ratio : 1.692
Frame rate : 25.000 fps
Color space : YUV
Chroma subsampling : 4:2:0
Bit depth : 8 bits
Scan type : Progressive
Compression mode : Lossy
Bits/(Pixel*Frame) : 0.148
Stream size : 402 MiB (89%)
Writing library : XviD 64
Audio
ID : 1
Format : MPEG Audio
Format version : Version 1
Format profile : Layer 3
Mode : Joint stereo
Mode extension : MS Stereo
Codec ID : 55
Codec ID/Hint : MP3
Duration : 51mn 48s
Bit rate mode : Constant
Bit rate : 128 Kbps
Channel(s) : 2 channels
Sampling rate : 48.0 KHz
Compression mode : Lossy
Stream size : 47.4 MiB (10%)
Alignment : Aligned on interleaves
Interleave, duration : 40 ms (1.00 video frame)
Interleave, preload duration : 504 ms
4серия:
General
Complete name : E:\Torrent\Diversant_(1 sezon)_[Pirat.ca].torrent\4 серия.avi
Format : AVI
Format/Info : Audio Video Interleave
File size : 473 MiB
Duration : 51mn 58s
Overall bit rate : 1 271 Kbps
Writing application : VirtualDubModRus 1.5.10.2 (build 2542/release)
Writing library : VirtualDub build 35390/release
Video
ID : 0
Format : MPEG-4 Visual
Format profile : Advanced [email protected]
Format settings, BVOP : 2
Format settings, QPel : No
Format settings, GMC : No warppoints
Format settings, Matrix : Default (H.263)
Muxing mode : Packed bitstream
Codec ID : XVID
Codec ID/Hint : XviD
Duration : 51mn 58s
Bit rate : 1 134 Kbps
Width : 704 pixels
Height : 416 pixels
Display aspect ratio : 1.692
Frame rate : 25.000 fps
Color space : YUV
Chroma subsampling : 4:2:0
Bit depth : 8 bits
Scan type : Progressive
Compression mode : Lossy
Bits/(Pixel*Frame) : 0.155
Stream size : 421 MiB (89%)
Writing library : XviD 64
Audio
ID : 1
Format : MPEG Audio
Format version : Version 1
Format profile : Layer 3
Mode : Joint stereo
Mode extension : MS Stereo
Codec ID : 55
Codec ID/Hint : MP3
Duration : 51mn 58s
Bit rate mode : Constant
Bit rate : 128 Kbps
Channel(s) : 2 channels
Sampling rate : 48.0 KHz
Compression mode : Lossy
Stream size : 47.6 MiB (10%)
Alignment : Aligned on interleaves
Interleave, duration : 40 ms (1.00 video frame)
Interleave, preload duration : 504 ms
Раздача с 14.00 до 2.30 (время московское)
Download / Скачать

Хотите скачать бесплатно? Зарегистрируйтесь на сайте (ссылка на регистрацию). Pirat.ca - самый быстрый торрент трекер в рунете!

Как скачивать  ·   Что такое торрент  ·   Рейтинг и ограничения

Alexlogin

Гроза морей

105

Пост 13-Окт-2014 17:19 (спустя 18 часов)

[Q] 

Спасибо посмотрим оценим
[Профиль]  [ЛС] 

viktor41

Шкипер

Пост 13-Окт-2014 19:35 (спустя 2 часа 16 минут)

[Q] 

Marhuz, Спасибо!!! Автору респект!!!
[Профиль]  [ЛС] 

alex denver71

Флибустьер

Пост 17-Ноя-2014 19:48 (спустя 1 месяц 4 дня)

[Q] 

Автору респект!!! Понравился сериал!!! bf
[Профиль]  [ЛС] 

jofrei53

Корсар

Пост 10-Май-2015 17:22 (спустя 5 месяцев 22 дня)

[Q] 

Спасибо!!! Сериал-ШЕДЕВР... Супер! Автору респект!!!
[Профиль]  [ЛС] 

Victorsalata

Корсар

Пост 17-Авг-2015 10:28 (спустя 3 месяца 6 дней)

[Q] 

Сериал интересный. Смотрел с удовольствием.
[Профиль]  [ЛС] 

Юр.И.К.

43

Пост 31-Янв-2016 23:28 (спустя 5 месяцев 14 дней)

[Q] 

Это уже классика военного сериала. Выше всяких похвал Автору респект!!!
[Профиль]  [ЛС] 
Показать сообщения:    
Ответить на тему

Текущее время: Сегодня 20:05

Часовой пояс: GMT + 4



Вы не можете начинать темы
Вы не можете отвечать на сообщения
Вы не можете редактировать свои сообщения
Вы не можете удалять свои сообщения
Вы не можете голосовать в опросах
Вы не можете прикреплять файлы к сообщениям
Вы не можете скачивать файлы

▼ Вниз