ML
     
  Уважаемый Гость!
Вы можете поддержать проект и зарегистрироваться у наших партнеров - онлайн-стратегия MyLands. При регистрации в игре Вы получите код, который сможете активировать после регистрации на pirat.ca и получить 1000 дублонов.

Ваш код:
5af7de75d3db09b6a37bc8bab71b0e87ccde73d6
 
     

Сучьи войны / Сезон: 1 / Серии: 1-8 из 8 (Николай Борц) [2014, военный, драма, исторический, SATRip]

Ответить на тему
 
Автор
Сообщение

Пост 16-Окт-2014 13:03

[Q] 

kugesan

Сучьи войны - Русское название: Сучьи войны
Страна: Россия
Производство: кинокомпания «Феникс Фильм»
Год выпуска: 2014
Жанр: Военный, драма, исторический-Режиссер: Николай Борц
В главных ролях: Алексей Демидов, Карина Андоленко, Михаил Пшеничный, Полина Уварова, Василиса Немцова, Алеся Гузько, Агриппина Стеклова, Константин Юшкевич, Андрей Иванов (VI), Янина Исаичкина, Анастасия Привалова, Алика Котова-Описание фильма:
"Сучьей войной" называют безжалостное противостояние между тюремными заключенными которое длилось десять лет - с середины сороковых до середины пятидесятых годов прошлого столетия.
Осужденные за уголовные преступления разделились на два противоборствующих лагеря. По одну сторону баррикад находились "воры в законе", которые привыкли жить "по понятиям" и ни при каких обстоятельствах не вступать в переговоры с представителями власти.
А с другой стороны были "суки" - заключенные, которые раскаялись в совершении преступления, искренне хотели исправиться. Большинство "сук" во времена Великой Отечественной войны воевали на фронте. Со временем к "сукам" присоединились воры, которые по тем или иным причинам не желали жить "по блатным" законам...-Сезон: 1
Серии: 8 из 8 серий
Продолжительность: ~ 00:49:00 мин серия-
Качество видео: SATRip
Формат: AVI
Видеокодек: XviD
Аудиокодек: Mp3
Видео: MPEG-4 Visual at 1400 Кбит/сек: 704 x 368 (1.913) at 25.000 fps, 0.22 Бит/Пиксели
Аудио: MPEG Audio at 192 Кбит/сек: 2 канала, 48,0 КГц
-
Код:
Общее
Полное имя                               : E:\_Сериалы\_Сериалы\Сучьи войны (2014)\Сучьи войны.(01.seriya).2014.XviD.SATRip.by.simka.avi
Формат                                   : AVI
Формат/Информация                        : Audio Video Interleave
Размер файла                             : 565 Мбайт
Продолжительность                        : 49 м.
Общий поток                              : 1602 Кбит/сек
Программа кодирования                    : VirtualDubModRus 1.5.10.2 (build 2542/release)
Библиотека кодирования                   : VirtualDubMod build 2542/release
Видео
Идентификатор                            : 0
Формат                                   : MPEG-4 Visual
Профиль формата                          : Advanced [email protected]
Параметр BVOP формата                    : 1
Параметр QPel формата                    : Нет
Параметр GMC формата                     : Без точки перехода
Параметр матрицы формата                 : Default (MPEG)
Идентификатор кодека                     : XVID
Идентификатор кодека/Подсказка           : XviD
Продолжительность                        : 49 м.
Битрейт                                  : 1400 Кбит/сек
Ширина                                   : 704 пикселя
Высота                                   : 368 пикселей
Соотношение сторон                       : 1,913
Частота кадров                           : 25,000 кадров/сек
Цветовое пространство                    : YUV
Субдискретизация насыщенности            : 4:2:0
Битовая глубина                          : 8 бит
Тип развёртки                            : Прогрессивная
Метод сжатия                             : С потерями
Бит/(Пиксели*Кадры)                      : 0.216
Размер потока                            : 494 Мбайт (87%)
Библиотека кодирования                   : XviD 1.2.1 (UTC 2008-12-04)
Аудио
Идентификатор                            : 1
Формат                                   : MPEG Audio
Версия формата                           : Version 1
Профиль формата                          : Layer 3
Режим                                    : Joint stereo
Идентификатор кодека                     : 55
Идентификатор кодека/Подсказка           : MP3
Продолжительность                        : 49 м.
Вид битрейта                             : Постоянный
Битрейт                                  : 192 Кбит/сек
Каналы                                   : 2 канала
Частота                                  : 48,0 КГц
Метод сжатия                             : С потерями
Размер потока                            : 67,8 Мбайт (12%)
Выравнивание                             : Соединение по промежуткам
Продолжительность промежутка             : 40  мс. (1,00 видеокадр)
Время предзагрузки промежутка            : 504  мс.
Библиотека кодирования                   : LAME3.99r
Настройки программы                      : -m j -V 4 -q 2 -lowpass 18.6 -b 192
-
-Скриншоты:
-
-
1. Открыть торрент
2. Снять галки с тех файлов торрента, которые мы не хотим закачивать. Оставляем только на нужных нам файлах (файле).
3. Нажать О.К.
В клиенте utorrent
Инструкция
1) Открыть торрент

2) Снять галки с тех файлов торрента, которые мы не хотим закачивать:
* либо вручную, снимая с каждого файла галку( скрин №1)
* либо, нажав кнопку "Снять метки (Select None)", сняв сразу со всех файлов(скрин №2)
№1

№2

Оставляем только на нужных нам файлах (файле).

3)Нажать О.К
-Добавлена третья серия четвертого сезона
Download / Скачать

Хотите скачать бесплатно? Зарегистрируйтесь на сайте (ссылка на регистрацию). Pirat.ca - самый быстрый торрент трекер в рунете!

Как скачивать  ·   Что такое торрент  ·   Рейтинг и ограничения

volodya_666

Корсар

Пост 17-Окт-2014 11:43 (спустя 22 часа)

[Q] 

Благодарю....
Ром в трюме...

_________________
[Профиль]  [ЛС] 

Юр.И.К.

43

Пост 19-Окт-2014 13:42 (спустя 2 дня 1 час)

[Q] 

Спасибо!!! Лови бочку
[Профиль]  [ЛС] 

putin3

Юнга

Пост 28-Ноя-2014 08:40 (спустя 1 месяц 8 дней)

[Q] 

Спасибо[ Лови бочку
[Профиль]  [ЛС] 

diman3737

Пост 21-Дек-2014 14:27 (спустя 23 дня)

[Q] 

Зачетный сериальчик! Супер! Лови бочку
[Профиль]  [ЛС] 

okorm

889

Пост 14-Фев-2015 11:01 (спустя 1 месяц 23 дня)

[Q] 

На любителя Лови бочку
[Профиль]  [ЛС] 

янка-сан

Гроза морей

Пост 18-Дек-2015 23:31 (спустя 10 месяцев 4 дня)

[Q] 

спасибо Лови бочку
[Профиль]  [ЛС] 
Показать сообщения:    
Ответить на тему

Текущее время: Сегодня 14:08

Часовой пояс: GMT + 4



Вы не можете начинать темы
Вы не можете отвечать на сообщения
Вы не можете редактировать свои сообщения
Вы не можете удалять свои сообщения
Вы не можете голосовать в опросах
Вы не можете прикреплять файлы к сообщениям
Вы не можете скачивать файлы

▼ Вниз