ML
     
  Уважаемый Гость!
Вы можете поддержать проект и зарегистрироваться у наших партнеров - онлайн-стратегия MyLands. При регистрации в игре Вы получите код, который сможете активировать после регистрации на pirat.ca и получить 1000 дублонов.

Ваш код:
2932e5898d0a27592397f70b82a5834d1e70ea19
 
     

Карпов третий сезон / Сезон: 3 / Серии: 1-16 из 32 (Иван Щёголев, Владислав Николаев) [2014 г., Детектив, криминальный фильм, драма, WEB-DL]

Ответить на тему
 
Автор
Сообщение

Пост 17-Окт-2014 17:32

[Q] 

Alexlogin

Гроза морей

-Карпов третий сезон-- Производство: Телекомпания ООО "DIXI TV" по заказу НТВ, ООО "Фильм 232"
Жанр: Детектив, криминальный фильм, драма
Год выпуска: 2014 г.
Продолжительность: 00:43:00
Российская премьера: 6 Октября 2014
Режиссер: Иван Щёголев, Владислав Николаев-В ролях: Владислав Котлярский, Степан Рожнов, Николай Козак, Юлия Майборода, Андрей Сорока, Виктория Тарасова, Дмитрий Мазуров, Тимур Ефременков, Дмитрий Блажко, Денис Рожков, Ева Авеева, Мария Болонкина, Владимир Фекленко, Владимир Яковлев, Мария Рассказова, Татьяна Исаева, Анатолий Петров, Екатерина Маликова, Наталья Гудкова, Мария Болтнева, Александр Бобров, Александр Касаткин, Ольга Шеховцова, Валерий Новиков, Александр Павленко, Олег Евтеев, Екатерина Шмакова, Анастасия Маринина-Описание: В третьей части сериала полюбившиеся зрителю герои объявят войну банде торговцев детьми и их клиентам-педофилам. Карпов и его компания примут решение расправиться с торговцами детьми «по-тихому», каждый раз маскируя их гибель под несчастный случай. Но, между тем, бывшие менты прекрасно понимают: истребить преступников до конца невозможно. И на их место непременно придут новые.-
Качество видео: WEB-DL
Контейнер: MKV
Видео кодек: Другой MPEG4
Аудио кодек: AC3
Видео: ~ 2000 Кбит/с, 1024x576, 16:9, 25.000 fps, 8 bits, 0.136 Бит/Пиксел
Аудио: АС3, 2 ch, 192 Кбит/с
Cубтитры: отсутствуют
General
Unique ID : 242972602143397901318993141908000393313 (0xB6CAD22DEE92F603A980D45AEA42C861)
Complete name : D:\Torrent\Karpov.3.2014.WEB-DLRip(AVC)\Karpov.3.2014.WEB-DLRip(AVC)_01.serija.mkv
Format : Matroska
Format version : Version 4 / Version 2
File size : 675 MiB
Duration : 43mn 8s
Overall bit rate mode : Constant
Overall bit rate : 2 188 Kbps
Encoded date : UTC 2014-10-06 18:54:00
Writing application : mkvmerge v7.2.0 ('On Every Street') 32bit built on Sep 13 2014 15:42:11
Writing library : libebml v1.3.0 + libmatroska v1.4.1
DURATION : 00:43:08.000000000
NUMBER_OF_FRAMES : 80875
NUMBER_OF_BYTES : 62112000
_STATISTICS_WRITING_APP : mkvmerge v7.2.0 ('On Every Street') 32bit built on Sep 13 2014 15:42:11
_STATISTICS_WRITING_DATE_UTC : 2014-10-06 18:54:00
_STATISTICS_TAGS : BPS DURATION NUMBER_OF_FRAMES NUMBER_OF_BYTES
Video
ID : 1
Format : AVC
Format/Info : Advanced Video Codec
Format profile : [email protected]
Format settings, CABAC : Yes
Format settings, ReFrames : 2 frames
Codec ID : V_MPEG4/ISO/AVC
Duration : 43mn 8s
Bit rate mode : Constant
Bit rate : 2 000 Kbps
Width : 1 024 pixels
Height : 576 pixels
Display aspect ratio : 16:9
Frame rate mode : Constant
Frame rate : 25.000 fps
Color space : YUV
Chroma subsampling : 4:2:0
Bit depth : 8 bits
Scan type : Progressive
Bits/(Pixel*Frame) : 0.136
Stream size : 602 MiB (89%)
Language : Russian
Default : Yes
Forced : No
DURATION : 00:43:07.960000000
NUMBER_OF_FRAMES : 64699
NUMBER_OF_BYTES : 645079588
_STATISTICS_WRITING_APP : mkvmerge v7.2.0 ('On Every Street') 32bit built on Sep 13 2014 15:42:11
_STATISTICS_WRITING_DATE_UTC : 2014-10-06 18:54:00
_STATISTICS_TAGS : BPS DURATION NUMBER_OF_FRAMES NUMBER_OF_BYTES
Audio
ID : 2
Format : AC-3
Format/Info : Audio Coding 3
Mode extension : CM (complete main)
Format settings, Endianness : Big
Codec ID : A_AC3
Duration : 43mn 8s
Bit rate mode : Constant
Bit rate : 192 Kbps
Channel(s) : 2 channels
Channel positions : Front: L R
Sampling rate : 48.0 KHz
Bit depth : 16 bits
Compression mode : Lossy
Delay relative to video : -200ms
Stream size : 59.2 MiB (9%)
Language : Russian
Default : Yes
Forced : No
Download / Скачать

Хотите скачать бесплатно? Зарегистрируйтесь на сайте (ссылка на регистрацию). Pirat.ca - самый быстрый торрент трекер в рунете!

Как скачивать  ·   Что такое торрент  ·   Рейтинг и ограничения



Последний раз редактировалось: Alexlogin (2014-10-19 10:34), всего редактировалось 1 раз

Андря

8409

Пост 19-Окт-2014 00:51 (спустя 1 день 7 часов)

[Q] 

скриншоты не соответствуют заявленному видео. исправьте, пожалуйста.

_________________
Като Тешекика
[Профиль]  [ЛС] 

Юр.И.К.

43

Пост 31-Янв-2016 23:43 (спустя 1 год 3 месяца)

[Q] 

"Устал" Карпов(((
[Профиль]  [ЛС] 
Показать сообщения:    
Ответить на тему

Текущее время: Сегодня 08:03

Часовой пояс: GMT + 4



Вы не можете начинать темы
Вы не можете отвечать на сообщения
Вы не можете редактировать свои сообщения
Вы не можете удалять свои сообщения
Вы не можете голосовать в опросах
Вы не можете прикреплять файлы к сообщениям
Вы не можете скачивать файлы

▼ Вниз