ML
     
  Уважаемый Гость!
Вы можете поддержать проект и зарегистрироваться у наших партнеров - онлайн-стратегия MyLands. При регистрации в игре Вы получите код, который сможете активировать после регистрации на pirat.ca и получить 1000 дублонов.

Ваш код:
a978488e62322cd72e113ab723b8a7fdc10eb9b9
 
     

Долгий путь домой / Сезон: 1 / Серии: 1-16-16 (Ольга Доброва-Куликова) [2013 г., драма, IPTVRip]

Ответить на тему
 
Автор
Сообщение

Пост 19-Окт-2014 17:07

[Q] 

Элез

Флибустьер

-Долгий путь домой-- Производство: Россия
Жанр: драма
Год выпуска: 2013 г.
Продолжительность: 00:45:00
Российская премьера: 7 сентября 2014
Режиссер: Ольга Доброва-Куликова-В ролях: Елизавета Боярская, Дарья Мороз, Александр Лазарев мл., Михаил Пшеничный, Елизавета Васильева, Дмитрий Комов, Илья Соболев, Кристина Кириллова, Михаил Евланов, Тимур Бондаренко, Александра Булычёва, Элина Богалейша-Делин, Наталья Суркова, Яна Есипович, Юлия Ромашина, Евгения Брик (Хиривская), Артём Ткаченко-Описание: Действие происходит с начала 80-х и до наших дней. Главная героиня сериала - простая деревенская девушка. Однажды она встречает того единственного мужчину, которого долго ждала... Её дочь - Ляля, проходит долгий и сложный путь. В юности она - избалованная дочь большого чиновника, беззаботная, безалаберная, эгоистичная. Потом судьба преподносит ей испытания и потери, что в корне меняет характер девушки.-
Качество видео: IPTVRip
Контейнер: AVI
Видео кодек: XviD
Аудио кодек: MP3
Видео: MPEG-4 Visual at 1499 Кбит/сек : 720 x 400 at 29.970 fps 0.174 Бит/Пиксели
Аудио: MPEG Audio at 128 Кбит/сек : 2 канала, 48,0 КГц
Cубтитры: израильские вшитые, не отключаемые
Общее
Полное имя : D:\уторент\раздачи\Dolgij.put.domoj.IPTVRip\Dolgij.put.domoj.02.IPTVRip.avi
Формат : AVI
Формат/Информация : Audio Video Interleave
Размер файла : 595 Мбайт
Продолжительность : 50 м.
Общий поток : 1639 Кбит/сек
Программа кодирования : VirtualDubMod 1.5.10.3 | www.virtualdub-fr.org || (build 2550/release)
Библиотека кодирования : VirtualDubMod build 2550/release
Видео
Идентификатор : 0
Формат : MPEG-4 Visual
Профиль формата : Advanced [email protected]
Параметр BVOP формата : 2
Параметр QPel формата : Нет
Параметр GMC формата : Без точки перехода
Параметр матрицы формата : Default (H.263)
Идентификатор кодека : XVID
Идентификатор кодека/Подсказка : XviD
Продолжительность : 50 м.
Битрейт : 1499 Кбит/сек
Ширина : 720 пикселей
Высота : 400 пикселей
Соотношение сторон : 16:9
Частота кадров : 29,970 кадров/сек
Цветовое пространство : YUV
Субдискретизация насыщенности : 4:2:0
Битовая глубина : 8 бит
Тип развёртки : Прогрессивная
Метод сжатия : С потерями
Бит/(Пиксели*Кадры) : 0.174
Размер потока : 544 Мбайт (91%)
Библиотека кодирования : XviD 1.2.1 (UTC 2008-12-04)
Аудио
Идентификатор : 1
Формат : MPEG Audio
Версия формата : Version 1
Профиль формата : Layer 3
Режим : Joint stereo
Расширение режима : MS Stereo
Идентификатор кодека : 55
Идентификатор кодека/Подсказка : MP3
Продолжительность : 50 м.
Вид битрейта : Постоянный
Битрейт : 128 Кбит/сек
Каналы : 2 канала
Частота : 48,0 КГц
Метод сжатия : С потерями
Размер потока : 46,4 Мбайт (8%)
Выравнивание : Соединение по промежуткам
Продолжительность промежутка : 33 мс. (1,00 видеокадр)
Время предзагрузки промежутка : 504 мс.
Библиотека кодирования : LAME3.99r
Настройки программы : -m j -V 4 -q 9 -lowpass 17 -b 128
Download / Скачать

Хотите скачать бесплатно? Зарегистрируйтесь на сайте (ссылка на регистрацию). Pirat.ca - самый быстрый торрент трекер в рунете!

Как скачивать  ·   Что такое торрент  ·   Рейтинг и ограничения

Показать сообщения:    
Ответить на тему

Текущее время: Сегодня 22:11

Часовой пояс: GMT + 4



Вы не можете начинать темы
Вы не можете отвечать на сообщения
Вы не можете редактировать свои сообщения
Вы не можете удалять свои сообщения
Вы не можете голосовать в опросах
Вы не можете прикреплять файлы к сообщениям
Вы не можете скачивать файлы

▼ Вниз