ML
     
  Уважаемый Гость!
Вы можете поддержать проект и зарегистрироваться у наших партнеров - онлайн-стратегия MyLands. При регистрации в игре Вы получите код, который сможете активировать после регистрации на pirat.ca и получить 1000 дублонов.

Ваш код:
ee1288b6f7c09d9d2cb2a0f972aba30460ce9333
 
     

Позывной "Стая" 2 / Сезон: 2 / Серии: 1-4 из 4 (Андрей Щербинин) [2014 г., Боевик, SATRip]

Ответить на тему
 
Автор
Сообщение

Пост 20-Окт-2014 17:12

[Q] 

cergo

Гроза морей

-Позывной "Стая" 2 Серии: 1-4 из 4--
Производство: Россия, ВГТРК
Жанр: Боевик
Год выпуска: 2014 г.
Продолжительность: 4 x ~ 00:47:00
Российская премьера: 19 октября 2014
Режиссер: Андрей Щербинин-В ролях:
Евгений Сидихин, Сергей Воробьёв (IV), Геннадий Казачков, Александр Эрлих, Петр Логачев, Полина Сидихина, Анна Королева (II), Алексей Величко, Юлия Горшенина, Самвел Мужикян, Иван Патраман-Описание:
Будучи в отставке, члены частного боевого отряда исполняют заказы в разных странах. Имея покровителя в российских спецслужбах, «Стая» зачастую берется за деликатные поручения за пределами своей страны в интересах правительства — в случаях, когда официальными путями государство действовать не может. Непобедимой команде предстоит бросить вызов спецслужбам Англии, Америки и Румынии, затеять смертельную игру с Массадом, отбить миллиард долларов у международной преступной группировки и даже сняться в кино в далекой африканской стране.-
Качество видео: SATRip
Контейнер: AVI
Видео кодек: XviD
Аудио кодек: AC3
Видео: 720x400 (1.80:1), 25 fps, XviD build 73 ~1405 kbps avg, 0.20 bit/pixel
Аудио: 48 kHz, AC3 Dolby Digital, 2/0 (L,R) ch, ~192 kbps
Cубтитры: отсутствуют
Общее
Полное имя : D:\Архив\Фильмы\Staja.2.2014.SATRip.avi
Формат : AVI
Формат/Информация : Audio Video Interleave
Размер файла : 551 Мбайт
Продолжительность : 47 м.
Общий поток : 1607 Кбит/сек
Программа кодирования : VirtualDubModRus 1.5.10.2 (build 2542/release)
Библиотека кодирования : VirtualDubMod build 2542/release
Видео
Идентификатор : 0
Формат : MPEG-4 Visual
Профиль формата : Advanced [email protected]
Параметр BVOP формата : 1
Параметр QPel формата : Нет
Параметр GMC формата : Без точки перехода
Параметр матрицы формата : Выборочная
Идентификатор кодека : XVID
Идентификатор кодека/Подсказка : XviD
Продолжительность : 47 м.
Битрейт : 1406 Кбит/сек
Ширина : 720 пикселей
Высота : 400 пикселей
Соотношение сторон : 16:9
Частота кадров : 25,000 кадров/сек
Цветовое пространство : YUV
Субдискретизация насыщенности : 4:2:0
Битовая глубина : 8 бит
Тип развёртки : Прогрессивная
Метод сжатия : С потерями
Бит/(Пиксели*Кадры) : 0.195
Размер потока : 481 Мбайт (87%)
Библиотека кодирования : XviD 73
Аудио
Идентификатор : 1
Формат : AC-3
Формат/Информация : Audio Coding 3
Расширение режима : CM (complete main)
Параметр Endianness формата : Big
Идентификатор кодека : 2000
Продолжительность : 47 м.
Вид битрейта : Постоянный
Битрейт : 192 Кбит/сек
Каналы : 2 канала
Расположение каналов : Front: L R
Частота : 48,0 КГц
Битовая глубина : 16 бит
Метод сжатия : С потерями
Размер потока : 65,8 Мбайт (12%)
Выравнивание : Разделение по промежуткам
Продолжительность промежутка : 40 мс. (1,00 видеокадр)
Время предзагрузки промежутка : 500 мс.
Скриншоты:
-
-
Download / Скачать

Хотите скачать бесплатно? Зарегистрируйтесь на сайте (ссылка на регистрацию). Pirat.ca - самый быстрый торрент трекер в рунете!

Как скачивать  ·   Что такое торрент  ·   Рейтинг и ограничения

Пост 20-Окт-2014 17:56 (спустя 43 минуты)

Топик был перенесен из форума Отечественные сериалы (Трюм) в форум Отечественные сериалы
kugesan
 

cergo ®

Гроза морей

20051

Пост 20-Окт-2014 18:02 (спустя 49 минут)

[Q] 

1 сезон >здесь<
[Профиль]  [ЛС] 

doc1

Лоцман

Пост 21-Окт-2014 08:45 (спустя 14 часов)

[Q] 

При попытке скачать торрент пишет файл неизвестного типа
[Профиль]  [ЛС] 

KVT50

Лоцман

Пост 21-Окт-2014 14:34 (спустя 5 часов)

[Q] 

Такая же фигня
печально
[Профиль]  [ЛС] 

cergo ®

Гроза морей

20051

Пост 21-Окт-2014 17:25 (спустя 2 часа 51 минута)

[Q] 

594751При попытке скачать торрент пишет файл неизвестного типа
594814Такая же фигня
печально

Учитесь пользоваться клиентом !!!
[Профиль]  [ЛС] 

KVT50

Лоцман

Пост 21-Окт-2014 21:04 (спустя 3 часа)

[Q] 

сори счас пошло Спасибо!!!
[Профиль]  [ЛС] 

sevensv

Легенда

2592

Пост 03-Ноя-2014 10:53 (спустя 12 дней)

[Q] 

Спасибо!!! Раздающему респект!
[Профиль]  [ЛС] 

KoNiaL_KCC

Гроза морей

Пост 03-Дек-2014 00:30 (спустя 29 дней)

[Q] 

!COOL! Раздающему респект! понравилось
[Профиль]  [ЛС] 
Показать сообщения:    
Ответить на тему

Текущее время: Сегодня 18:17

Часовой пояс: GMT + 4



Вы не можете начинать темы
Вы не можете отвечать на сообщения
Вы не можете редактировать свои сообщения
Вы не можете удалять свои сообщения
Вы не можете голосовать в опросах
Вы не можете прикреплять файлы к сообщениям
Вы не можете скачивать файлы

▼ Вниз