ML
     
  Уважаемый Гость!
Вы можете поддержать проект и зарегистрироваться у наших партнеров - онлайн-стратегия MyLands. При регистрации в игре Вы получите код, который сможете активировать после регистрации на pirat.ca и получить 1000 дублонов.

Ваш код:
a6d1ef7ff63e237add5a4c8b21d8aa937c5e9b4b
 
     

Дело Батагами / Сезон: 1 / Серии: 1-8 из 8 (Оксана Сидоренко) [2014 г., боевик, SATRip]

Ответить на тему
 
Автор
Сообщение

Пост 27-Окт-2014 14:00

[Q] 

Элез

Флибустьер

-Дело Батагами-- Производство: Россия
Жанр: боевик
Год выпуска: 2014 г.
Продолжительность: 00:43:00
Российская премьера: 25 октября 2014
Режиссер: Оксана Сидоренко-В ролях: Андрей Чадов, Лилия Мэй, Игорь Жижикин, Дмитрий Ратомский, Любовь Толкалина, Евгений Воловенко, Руслан Спояло, Игорь Емелин, Владимир Носик, Марк Дакаскос, Алина Бабак, Юлия Гришина, Юлия Максимова-Описание: В день, когда погибает его собственная невеста, телохранитель Илья решает оставить профессию. Бывшему однокашнику Алексею стоило немалых трудов вытащить парня из депрессии и завербовать в недавно созданный Департамент по защите свидетелей. Илья полностью уходит в работу, удивляя коллег нестандартным мышлением и молниеносными ходами на опережение. Вскоре Илья понимает, что смерть невесты связана с изощренной, дьявольски изобретательной местью некоего иностранного бизнесмена к нечистоплотному в делах московскому коммерсанту. Разобравшись в этой интриге, Илья сможет узнать правду о своей пропавшей невесте…-
Качество видео: SATRip
Контейнер: AVI
Видео кодек: XviD
Аудио кодек: MP3
Видео: MPEG-4 Visual at 1501 Кбит/сек : 720 x 400 at 25.000 fps 0.208 Бит/Пиксели
Аудио: MPEG Audio at 128 Кбит/сек : 2 канала, 48,0 КГц
Cубтитры: отсутствуют
Общее
Полное имя : D:\уторент\раздачи\Дело Батагами\Delo.Batagami.01.SATRip.avi
Формат : AVI
Формат/Информация : Audio Video Interleave
Размер файла : 497 Мбайт
Продолжительность : 42 м.
Общий поток : 1638 Кбит/сек
Библиотека кодирования : VirtualDub build 35491/release
Видео
Идентификатор : 0
Формат : MPEG-4 Visual
Параметр BVOP формата : 1
Параметр QPel формата : Нет
Параметр GMC формата : Без точки перехода
Параметр матрицы формата : Default (H.263)
Режим смешивания : Сжатый битовый поток
Идентификатор кодека : DX50
Идентификатор кодека/Подсказка : DivX 5
Продолжительность : 42 м.
Битрейт : 1501 Кбит/сек
Ширина : 720 пикселей
Высота : 400 пикселей
Соотношение сторон : 16:9
Частота кадров : 25,000 кадров/сек
Цветовое пространство : YUV
Субдискретизация насыщенности : 4:2:0
Битовая глубина : 8 бит
Тип развёртки : Прогрессивная
Метод сжатия : С потерями
Бит/(Пиксели*Кадры) : 0.208
Размер потока : 455 Мбайт (92%)
Библиотека кодирования : DivX 6.8.5 (UTC 2009-08-20)
Аудио
Идентификатор : 1
Формат : MPEG Audio
Версия формата : Version 1
Профиль формата : Layer 3
Режим : Joint stereo
Расширение режима : MS Stereo
Идентификатор кодека : 55
Идентификатор кодека/Подсказка : MP3
Продолжительность : 42 м.
Вид битрейта : Постоянный
Битрейт : 128 Кбит/сек
Каналы : 2 канала
Частота : 48,0 КГц
Метод сжатия : С потерями
Размер потока : 38,8 Мбайт (8%)
Выравнивание : Разделение по промежуткам
Продолжительность промежутка : 40 мс. (1,00 видеокадр)
Время предзагрузки промежутка : 500 мс.
Download / Скачать

Хотите скачать бесплатно? Зарегистрируйтесь на сайте (ссылка на регистрацию). Pirat.ca - самый быстрый торрент трекер в рунете!

Как скачивать  ·   Что такое торрент  ·   Рейтинг и ограничения

Пост 27-Окт-2014 19:10 (спустя 5 часов)

Топик был перенесен из форума Отечественные сериалы (Трюм) в форум Отечественные сериалы
kugesan
 

malefik

Корсар

Пост 29-Окт-2014 05:13 (спустя 1 день 15 часов)

[Q] 

посмотрел трейлер на кинопоиске....сплошное махалово и убийство разбавленное красивыми приемами ГГ и гаражными разборками.
есть другие мнения кроме первого негативного???
[Профиль]  [ЛС] 

Юр.И.К.

43

Пост 31-Янв-2016 23:42 (спустя 1 год 3 месяца)

[Q] 

malefik, от постеров с Дакаскосом вообще трудно ожидать высоко интеллектуальных философских "пируэтов")))
[Профиль]  [ЛС] 
Показать сообщения:    
Ответить на тему

Текущее время: Сегодня 13:33

Часовой пояс: GMT + 4



Вы не можете начинать темы
Вы не можете отвечать на сообщения
Вы не можете редактировать свои сообщения
Вы не можете удалять свои сообщения
Вы не можете голосовать в опросах
Вы не можете прикреплять файлы к сообщениям
Вы не можете скачивать файлы

▼ Вниз