ML
     
  Уважаемый Гость!
Вы можете поддержать проект и зарегистрироваться у наших партнеров - онлайн-стратегия MyLands. При регистрации в игре Вы получите код, который сможете активировать после регистрации на pirat.ca и получить 1000 дублонов.

Ваш код:
11f49771fdf057c9d51610e4a0925c3b46ddb655
 
     

Раскаленный периметр / Серии: 1-4 из 4 (Игорь Драка) [2014 г., Детектив, криминал, SATRip]

Ответить на тему
 
Автор
Сообщение

Пост 01-Ноя-2014 22:45

[Q] 

cergo

Гроза морей

-Раскаленный периметрСерии: 1-4 из 4--
Производство: Россия, ООО «Триикс Медиа»
Жанр: Детектив, криминал
Год выпуска: 2014 г.
Продолжительность: 4 x ~ 00:45:00
Российская премьера: 31 октября 2014
Режиссер: Игорь Драка-В ролях: Сергей Горобченко, Никита Волков, Оксана Скакун, Юрий Николаенко, Анатолий Бобер, Анастасия Спектор, Денис Старков, Алексей Суренский, Владимир Чернышов, Константин Шелестун-Описание: Десантники Андрей и Игорь сразу после демобилизации отправляются отдыхать в небольшой приморский городок, в котором живет родная тетя Игоря. От нее друзья узнают, что на пляжах города регулярно исчезают молодые девушки. Полиция ведет поиски, но до последнего времени тщетно. Вскоре стражам порядка «улыбается удача»: они задерживают Андрея с Игорем, с которыми видели пропавших накануне девушек. Майор Никольский, который руководит расследованием, быстро понимает, что десантники не имеют к похищениям никакого отношения. По скудной оперативной информации известно только то, что к преступлениям причастны двое высоких мускулистых парней. На следующий день Игорь видит, как двое крепких молодых людей знакомятся на пляже с девушками. Андрей не придает этому значения и идет купаться, а когда выходит из воды, обнаруживает Игоря на песке без сознания. В тяжелом состоянии его отвозят в местную больницу, где он впадает в кому. Андрей разыскивает Никольского и рассказывает ему о парнях с пляжа. Майор отправляет в больницу экспертов, которые выясняют, что пострадавшему сделали укол сильнодействующего препарата. Чтобы найти и наказать обидчиков друга и похитителей девушек, Андрей просит Никольского разрешить ему участвовать в расследовании…-
Качество видео: SATRip
Контейнер: AVI
Видео кодек: XviD
Аудио кодек: MP3
Видео: 720x448 (1.61:1), 25 fps, XviD build 50 ~1799 kbps avg, 0.22 bit/pixel
Аудио: 48 kHz, MPEG Layer 3, 2 ch, ~128.00 kbps avg
Cубтитры: отсутствуют
Общее
Полное имя : D:\Архив\Фильмы\Raskalennyi.perimetr.SATRip.avi
Формат : AVI
Формат/Информация : Audio Video Interleave
Размер файла : 603 Мбайт
Продолжительность : 43 м.
Общий поток : 1938 Кбит/сек
Библиотека кодирования : VirtualDub build 32817/release
Видео
Идентификатор : 0
Формат : MPEG-4 Visual
Профиль формата : Advanced [email protected]
Параметр BVOP формата : 2
Параметр QPel формата : Нет
Параметр GMC формата : Без точки перехода
Параметр матрицы формата : Default (MPEG)
Идентификатор кодека : XVID
Идентификатор кодека/Подсказка : XviD
Продолжительность : 43 м.
Битрейт : 1800 Кбит/сек
Ширина : 720 пикселей
Высота : 448 пикселей
Соотношение сторон : 16:10
Частота кадров : 25,000 кадров/сек
Цветовое пространство : YUV
Субдискретизация насыщенности : 4:2:0
Битовая глубина : 8 бит
Тип развёртки : Прогрессивная
Метод сжатия : С потерями
Бит/(Пиксели*Кадры) : 0.223
Размер потока : 560 Мбайт (93%)
Библиотека кодирования : XviD 1.2.1 (UTC 2008-12-04)
Аудио
Идентификатор : 1
Формат : MPEG Audio
Версия формата : Version 1
Профиль формата : Layer 3
Режим : Joint stereo
Идентификатор кодека : 55
Идентификатор кодека/Подсказка : MP3
Продолжительность : 43 м.
Вид битрейта : Постоянный
Битрейт : 128 Кбит/сек
Каналы : 2 канала
Частота : 48,0 КГц
Метод сжатия : С потерями
Размер потока : 39,8 Мбайт (7%)
Выравнивание : Разделение по промежуткам
Продолжительность промежутка : 40 мс. (1,00 видеокадр)
Время предзагрузки промежутка : 500 мс.
Скриншоты
-
--
Download / Скачать

Хотите скачать бесплатно? Зарегистрируйтесь на сайте (ссылка на регистрацию). Pirat.ca - самый быстрый торрент трекер в рунете!

Как скачивать  ·   Что такое торрент  ·   Рейтинг и ограничения

vovan200976

Флибустьер

Пост 02-Ноя-2014 08:53 (спустя 10 часов)

[Q] 

Лови бочку Глянем !!!
[Профиль]  [ЛС] 

cergo ®

Гроза морей

20059

Пост 02-Ноя-2014 11:07 (спустя 2 часа 13 минут)

[Q] 

599791 Лови бочку Глянем !!!
az
[Профиль]  [ЛС] 

lera27

Лоцман

Пост 02-Ноя-2014 14:00 (спустя 2 часа 53 минуты)

[Q] 

Красавчек..!фильм снимали в родном городе .. Черноморское..)спасибо за раздачу..
[Профиль]  [ЛС] 

cergo ®

Гроза морей

20059

Пост 02-Ноя-2014 15:50 (спустя 1 час 50 минут)

[Q] 

599900Красавчек..!фильм снимали в родном городе .. Черноморское..)спасибо за раздачу..
aa az
[Профиль]  [ЛС] 

Alexlogin

Гроза морей

105

Пост 02-Ноя-2014 18:57 (спустя 3 часа)

[Q] 

Спасибо автору, забираю
[Профиль]  [ЛС] 

Vintorezov REG 39

Легенда

176

Пост 03-Ноя-2014 00:21 (спустя 5 часов)

[Q] 

Нормальное кино Спасибо .
[Профиль]  [ЛС] 
Показать сообщения:    
Ответить на тему

Текущее время: Сегодня 03:14

Часовой пояс: GMT + 4



Вы не можете начинать темы
Вы не можете отвечать на сообщения
Вы не можете редактировать свои сообщения
Вы не можете удалять свои сообщения
Вы не можете голосовать в опросах
Вы не можете прикреплять файлы к сообщениям
Вы не можете скачивать файлы

▼ Вниз