ML
     
  Уважаемый Гость!
Вы можете поддержать проект и зарегистрироваться у наших партнеров - онлайн-стратегия MyLands. При регистрации в игре Вы получите код, который сможете активировать после регистрации на pirat.ca и получить 1000 дублонов.

Ваш код:
f612af22ea70acf5cbe90707ac5a076d215f8f7f
 
     

Последний из Магикян / Сезон: 3 / Серии: 1-12 из 12 (Резо Гигинеишвили, Акаки Сахелашвили) [2014 г., комедийный сериал, SATRip] [обновляемая]

Ответить на тему
 
Автор
Сообщение

Пост 24-Ноя-2014 19:06

[Q] 

GMCJimmy

Легенда

-Последний из Магикян-- Производство: Россия, Yellow, Black and White, кинокомпания «Небо»
Жанр: комедийный сериал
Год выпуска: 2014 г.
Продолжительность: 24 мин./
Режиссер: Резо Гигинеишвили, Акаки Сахелашвили-В ролях: Грант Тохатян, Анна Ардова, Андрей Бурковский, Алина Гринберг, Луиза Габриэла Бровина, Элен Касьяник, Темико Чичинадзе, Александр Феклистов, Наталья Вдовина,Александр Гаврильчик, Андрей Дерьков, Андрей Канойко, Василий Земзюлин, Виктор Медведский, Алексей Михнович, Алексей Татаренко, Вадим Голомако, Роман Ангелин, Александр Данилов-Описание: Самый добрый владелец автосервиса в Москве — Карен Магикян — готов на все ради своих близких. В первом сезоне сериала он смирился с тем фактом, что у его дочери будет русский жених. Во втором — нашел общий язык с родителями будущего зятя. Неужели за эти подвиги Карена ждет воплощение заветной мечты всей жизни, и у него с Наташей родится сын?-Качество видео: SATRip
Контейнер: AVI
Видео кодек: XviD
Аудио кодек: MP3
Видео: 720x400 , 1500 kbps , 25,000 fps , 0.250 Бит/Пиксел
Аудио: 128 kbps , 2 ch , 48,0
Cубтитры: отсутствуют
Формат : AVI
Формат/Информация : Audio Video Interleave
Размер файла : 335 Мбайт
Продолжительность : 24 м.
Общий поток : 1938 Кбит/сек
Библиотека кодирования : VirtualDub build 32817/release
Видео
Идентификатор : 0
Формат : MPEG-4 Visual
Профиль формата : Advanced [email protected]
Параметр BVOP формата : 2
Параметр QPel формата : Нет
Параметр GMC формата : Без точки перехода
Параметр матрицы формата : Default (MPEG)
Идентификатор кодека : XVID
Идентификатор кодека/Подсказка : XviD
Продолжительность : 24 м.
Битрейт : 1800 Кбит/сек
Ширина : 720 пикселей
Высота : 400 пикселей
Соотношение сторон : 16:9
Частота кадров : 25,000 кадров/сек
Цветовое пространство : YUV
Субдискретизация насыщенности : 4:2:0
Битовая глубина : 8 бит
Тип развёртки : Прогрессивная
Метод сжатия : С потерями
Бит/(Пиксели*Кадры) : 0.250
Размер потока : 311 Мбайт (93%)
Библиотека кодирования : XviD 1.2.1 (UTC 2008-12-04)
Аудио
Идентификатор : 1
Формат : MPEG Audio
Версия формата : Version 1
Профиль формата : Layer 3
Режим : Joint stereo
Расширение режима : MS Stereo
Идентификатор кодека : 55
Идентификатор кодека/Подсказка : MP3
Продолжительность : 24 м.
Вид битрейта : Постоянный
Битрейт : 128 Кбит/сек
Каналы : 2 канала
Частота : 48,0 КГц
Метод сжатия : С потерями
Размер потока : 22,1 Мбайт (7%)
Выравнивание : Разделение по промежуткам
Продолжительность промежутка : 40 мс. (1,00 видеокадр)
Время предзагрузки промежутка : 500 мс.
Внимание! Раздача ведётся путём добавления новых серий; при каждом добавлении создётся новый торрент. Чтобы начать докачку новой серии, пользователям необходимо сделать следующее:
(1) остановить скачивание,
(2) удалить старый торрент у себя из клиента (старые серии удалять не надо),
(3) скачать новый торрент и запустить его у себя в клиенте вместо старого, при этом указать клиенту путь в старую папку куда и должно происходить скачивание новых серий.
Ваш клиент при этом должен произвести хеширование (проверку) старой папки (если не производит сам - помогите ему сделать это), и будет докачивать только те серии которых у вас ещё нет. Старые серии при этом не удаляются, а продолжают раздаваться!
Eсли вы уже удалили старые серии, то предотвратить повторную закачку старых серий можно, отжав галочку в соответствующих местах при запуске нового торрента.
Download / Скачать

Хотите скачать бесплатно? Зарегистрируйтесь на сайте (ссылка на регистрацию). Pirat.ca - самый быстрый торрент трекер в рунете!

Как скачивать  ·   Что такое торрент  ·   Рейтинг и ограничения



Последний раз редактировалось: GMCJimmy (2014-12-10 15:47), всего редактировалось 12 раз(а)

Пост 24-Ноя-2014 21:02 (спустя 1 час 56 минут)

Топик был перенесен из форума Отечественные сериалы (Трюм) в форум Сериалы в эфире
kugesan
 

Sergi4

Гроза морей

Пост 30-Ноя-2014 20:04 (спустя 6 дней)

[Q] 

Спасибо!!!
[Профиль]  [ЛС] 

ikea2

Шкипер

Пост 01-Дек-2014 21:19 (спустя 1 день 1 час)

[Q] 

слава
[Профиль]  [ЛС] 

gnom82

Лоцман

Пост 10-Дек-2014 15:53 (спустя 8 дней)

[Q] 

сыпосибо бочка в трюм
[Профиль]  [ЛС] 

Пост 10-Дек-2014 19:55 (спустя 4 часа)

Топик был перенесен из форума Сериалы в эфире в форум Отечественные сериалы
kugesan
 
Показать сообщения:    
Ответить на тему

Текущее время: Сегодня 00:29

Часовой пояс: GMT + 4



Вы не можете начинать темы
Вы не можете отвечать на сообщения
Вы не можете редактировать свои сообщения
Вы не можете удалять свои сообщения
Вы не можете голосовать в опросах
Вы не можете прикреплять файлы к сообщениям
Вы не можете скачивать файлы

▼ Вниз