ML
     
  Уважаемый Гость!
Вы можете поддержать проект и зарегистрироваться у наших партнеров - онлайн-стратегия MyLands. При регистрации в игре Вы получите код, который сможете активировать после регистрации на pirat.ca и получить 1000 дублонов.

Ваш код:
47bfc18b89c74e4ae0d974e9b6943639e2bff08e
 
     

Алхимик / Серии: 1-12 (Александр Муратов (II)) [2015 г., детектив, мелодрама, SATRip]

Ответить на тему
 
Автор
Сообщение

Пост 05-Мар-2015 16:49

[Q] 

naryshev

Флибустьер

-Алхимик-- Производство: Россия, «Фаворит фильм»
Жанр: детектив, мелодрама
Год выпуска: 2015 г.
Продолжительность: 00:52:00
Мировая премьера: 24 февраля 2015
Режиссер: Александр Муратов (II)-В ролях: Игорь Петренко, Светлана Иванова, Виктор Раков, Евгения Добровольская, Юлия Рутберг, Павел Баршак, Фёдор Лавров, Владимир Ерёмин, Сергей Степанченко, Игорь Ясулович, Юрий Беляев, Андрей Ильин, Борис Щербаков, Артём Ткаченко-Описание: Сериал рассказывает о самых известных – и в то же время самых таинственных экспериментаторах всех времен – алхимиках. Используя познания в органической химии, свойствах известных минералов и особую энергетику мистических элементов, они из года в год пытались приготовить эликсир бессмертия и научиться превращать в золото любой металл.
-
Качество видео: SATRip
Контейнер: MKV
Видео кодек: V_MPEG4/ISO/AVC
Аудио кодек: AC3
Видео: 720*384, 1650 Кбит/сек, 25,000 кадров/сек
Аудио: 192 Кбит/сек, 2 канала, 48,0 КГц
Cубтитры: отсутствуют
Общее
Уникальный идентификатор : 171312607211690285851020510176853542027 (0x80E19BA6699E3271AE770760E12EC48B)
Полное имя : F:\Фильмы\Алхимик\01 серия.mkv
Формат : Matroska
Версия формата : Version 2
Размер файла : 697 Мбайт
Продолжительность : 52 м.
Общий поток : 1844 Кбит/сек
Дата кодирования : UTC 2015-02-25 11:25:26
Программа кодирования : mkvmerge v7.6.0 ('Garden of Dreams') 32bit built on Feb 11 2015 00:18:47
Библиотека кодирования : libebml v1.3.1 + libmatroska v1.4.2
Видео
Идентификатор : 1
Формат : AVC
Формат/Информация : Advanced Video Codec
Профиль формата : [email protected]
Параметр CABAC формата : Да
Параметр ReFrames формата : 9 кадров
Идентификатор кодека : V_MPEG4/ISO/AVC
Продолжительность : 52 м.
Битрейт : 1650 Кбит/сек
Ширина : 720 пикселей
Высота : 384 пикселя
Соотношение сторон : 1,85:1
Режим частоты кадров : Постоянный
Частота кадров : 25,000 кадров/сек
Цветовое пространство : YUV
Субдискретизация насыщенности : 4:2:0
Битовая глубина : 8 бит
Тип развёртки : Прогрессивная
Бит/(Пиксели*Кадры) : 0.239
Размер потока : 610 Мбайт (88%)
Библиотека кодирования : x264 core 144 r2525 40bb568
Настройки программы : cabac=1 / ref=9 / deblock=1:-3:-3 / analyse=0x3:0x113 / me=hex / subme=9 / psy=1 / psy_rd=1.00:1.00 / mixed_ref=1 / me_range=16 / chroma_me=0 / trellis=2 / 8x8dct=1 / cqm=0 / deadzone=21,11 / fast_pskip=1 / chroma_qp_offset=-4 / threads=4 / lookahead_threads=6 / sliced_threads=0 / nr=0 / decimate=0 / interlaced=0 / bluray_compat=0 / constrained_intra=0 / bframes=9 / b_pyramid=2 / b_adapt=2 / b_bias=0 / direct=3 / weightb=1 / open_gop=0 / weightp=2 / keyint=250 / keyint_min=25 / scenecut=40 / intra_refresh=0 / rc_lookahead=30 / rc=2pass / mbtree=1 / bitrate=1650 / ratetol=1.0 / qcomp=0.60 / qpmin=0 / qpmax=69 / qpstep=4 / cplxblur=20.0 / qblur=0.5 / ip_ratio=1.40 / aq=1:1.00
Default : Да
Forced : Нет
Основные цвета : BT.601 PAL
Характеристики трансфера : BT.470 System B, BT.470 System G
Коэффициенты матрицы : BT.601
colour_range : Limited
Аудио
Идентификатор : 2
Формат : AC-3
Формат/Информация : Audio Coding 3
Расширение режима : CM (complete main)
Параметр Endianness формата : Big
Идентификатор кодека : A_AC3
Продолжительность : 52 м.
Вид битрейта : Постоянный
Битрейт : 192 Кбит/сек
Каналы : 2 канала
Расположение каналов : Front: L R
Частота : 48,0 КГц
Битовая глубина : 16 бит
Метод сжатия : С потерями
Размер потока : 72,6 Мбайт (10%)
Default : Да
Forced : Нет
Скриншоты
Download / Скачать

Хотите скачать бесплатно? Зарегистрируйтесь на сайте (ссылка на регистрацию). Pirat.ca - самый быстрый торрент трекер в рунете!

Как скачивать  ·   Что такое торрент  ·   Рейтинг и ограничения

Пост 05-Мар-2015 20:19 (спустя 3 часа)

Топик был перенесен из форума Отечественные сериалы (Трюм) в форум Отечественные сериалы
Андря
 

naryshev ®

Флибустьер

8217

Пост 05-Мар-2015 21:25 (спустя 4 часа)

[Q] 

мне последний скрин нравится: как-то по-домашнему

_________________
[Профиль]  [ЛС] 

Юр.И.К.

43

Пост 31-Янв-2016 23:31 (спустя 10 месяцев 26 дней)

[Q] 

63 раза скачан и без отзывов. Одно это интригует...
[Профиль]  [ЛС] 
Показать сообщения:    
Ответить на тему

Текущее время: Сегодня 07:02

Часовой пояс: GMT + 4



Вы не можете начинать темы
Вы не можете отвечать на сообщения
Вы не можете редактировать свои сообщения
Вы не можете удалять свои сообщения
Вы не можете голосовать в опросах
Вы не можете прикреплять файлы к сообщениям
Вы не можете скачивать файлы

▼ Вниз