ML
     
  Уважаемый Гость!
Вы можете поддержать проект и зарегистрироваться у наших партнеров - онлайн-стратегия MyLands. При регистрации в игре Вы получите код, который сможете активировать после регистрации на pirat.ca и получить 1000 дублонов.

Ваш код:
a6d1ef7ff63e237add5a4c8b21d8aa937c5e9b4b
 
     

Меч / Сезон: 1 / Серии: 1-25 из 25 (Рустам Уразаев, Виктор Конисевич) [2009 г., боевик, драма, DVDRip]

Ответить на тему
 
Автор
Сообщение

Пост 05-Мар-2015 20:19

[Q] 

Элез

Флибустьер

-Меч-- Производство: Россия
Жанр: боевик, драма
Год выпуска: 2009 г.
Продолжительность: 48 мин.
Мировая премьера: 16 ноября 2009
Дата выхода DVD: 23 февраля 2010, «Русское счастье»
Режиссер: Рустам Уразаев, Виктор Конисевич-В ролях: Тимур Ефременков, Игорь Литовкин, Дмитрий Антимонов, Ян Воробьев, Игорь Фокин, Эдуард Флеров, Роман Курцын, Дарья Повереннова, Нина Гогаева, Александр Фисенко, Александр Шестопалов, Денис Сердюков, Борис Шевченко, Кирилл Петров, Рауль Ганеев, Шухрат Иргашев, Ростислав Королькевич, Александр Матвеев, Ольга Герасимова, Иван Мамонов ... »-Описание: Наши дни. Москва. Растущий мегаполис выходит из-под контроля милиции. Уровень преступности растет в геометрической прогрессии. Макс Калинин бывший офицер разведки ВДВ, оперативник УБОП. По фиктивному обвинению его увольняют со службы. На деле Макс просто не согласился отпустить преступника, за которого кто-то из его руководства получил большую взятку. Калинин принимает непростое решение, он будет бороться с беззаконием своими методами. Макс собирает маленькую команду единомышленников.
Команда разрастается и постепенно превращается в опасную и жестокую карательную организацию, которой боятся все. Они выбирают своим знаком меч, так же их называют и журналисты. На улицах города разворачивается настоящая война. «Меч» находится между двух зол — криминального мира, который объявляет огромные деньги за их «головы» и своих бывших коллег, которые начинают охоту на «оборотней».-
Качество видео: DVDRip
Контейнер: AVI
Видео кодек: XviD
Аудио кодек: DVD-Audio
Видео: MPEG-4 Visual at 1537 Кбит/сек : 704 x 400, 25.000 fps, 0.218 Бит/Пиксели
Аудио: MPEG Audio at 128 Кбит/сек : 2 канала, 48,0 КГц
Cубтитры: отсутствуют
Общее
Полное имя : D:\µTorrent\razda4a\Mech.DVDRip-antonios\Mech.16.DVDRip-antonios.avi
Формат : AVI
Формат/Информация : Audio Video Interleave
Размер файла : 570 Мбайт
Продолжительность : 47 м.
Общий поток : 1675 Кбит/сек
Программа кодирования : VirtualDubMod 1.5.10.2 (build 2540/release)
Библиотека кодирования : VirtualDubMod build 2540/release
Видео
Идентификатор : 0
Формат : MPEG-4 Visual
Профиль формата : Advanced [email protected]
Параметр BVOP формата : 1
Параметр QPel формата : Нет
Параметр GMC формата : Без точки перехода
Параметр матрицы формата : Выборочная
Идентификатор кодека : XVID
Идентификатор кодека/Подсказка : XviD
Продолжительность : 47 м.
Битрейт : 1537 Кбит/сек
Ширина : 704 пикселя
Высота : 400 пикселей
Соотношение сторон : 16:9
Частота кадров : 25,000 кадров/сек
Цветовое пространство : YUV
Субдискретизация насыщенности : 4:2:0
Битовая глубина : 8 бит
Тип развёртки : Прогрессивная
Метод сжатия : С потерями
Бит/(Пиксели*Кадры) : 0.218
Размер потока : 524 Мбайт (92%)
Библиотека кодирования : XviD 1.2.1 (UTC 2008-12-04)
Аудио
Идентификатор : 1
Формат : MPEG Audio
Версия формата : Version 1
Профиль формата : Layer 3
Идентификатор кодека : 55
Идентификатор кодека/Подсказка : MP3
Продолжительность : 47 м.
Вид битрейта : Постоянный
Битрейт : 128 Кбит/сек
Каналы : 2 канала
Частота : 48,0 КГц
Метод сжатия : С потерями
Размер потока : 43,6 Мбайт (8%)
Выравнивание : Соединение по промежуткам
Продолжительность промежутка : 40 мс. (1,00 видеокадр)
Время предзагрузки промежутка : 504 мс.
Библиотека кодирования : LAME3.98r
Настройки программы : -m s -V 4 -q 2 -lowpass 17 -b 128
Download / Скачать

Хотите скачать бесплатно? Зарегистрируйтесь на сайте (ссылка на регистрацию). Pirat.ca - самый быстрый торрент трекер в рунете!

Как скачивать  ·   Что такое торрент  ·   Рейтинг и ограничения

Пост 05-Мар-2015 20:21 (спустя 2 минуты)

Топик был перенесен из форума Отечественные сериалы (Трюм) в форум Отечественные сериалы
Андря
 

AHDPUXA

Лоцман

Пост 06-Мар-2015 16:59 (спустя 20 часов)

[Q] 

Рекомендую!!! Жаль нет продолжения.
[Профиль]  [ЛС] 

Victorsalata

Корсар

Пост 17-Авг-2015 10:55 (спустя 5 месяцев 10 дней)

[Q] 

Хороший сериал. Нужно смотреть.
[Профиль]  [ЛС] 
Показать сообщения:    
Ответить на тему

Текущее время: Сегодня 13:32

Часовой пояс: GMT + 4



Вы не можете начинать темы
Вы не можете отвечать на сообщения
Вы не можете редактировать свои сообщения
Вы не можете удалять свои сообщения
Вы не можете голосовать в опросах
Вы не можете прикреплять файлы к сообщениям
Вы не можете скачивать файлы

▼ Вниз