ML
     
  Уважаемый Гость!
Вы можете поддержать проект и зарегистрироваться у наших партнеров - онлайн-стратегия MyLands. При регистрации в игре Вы получите код, который сможете активировать после регистрации на pirat.ca и получить 1000 дублонов.

Ваш код:
ea554e7ed3eacceeae87a8b30a9de3f086c18a84
 
     

Плата по счетчику / Сезон: 1 / Серии: 1-4 из 4 (Кирилл Капица) [2014 г., криминал, драма, HDTV, 1080i]

Ответить на тему
 
Автор
Сообщение

Пост 21-Мар-2015 20:37

[Q] 

TRECA

Флибустьер

-Плата по счетчику-- Производство: Россия / "Стар Медиа"
Жанр: криминал, драма
Год выпуска: 2014 г.
Продолжительность: 4 х 00:44:00
Российская премьера: 20 марта 2015
Режиссер: Кирилл Капица-В ролях: Алексей Комашко, Анастасия Рубова, Елена Руфанова, Елена Мартыненко, Александр Кудренко, Анатолий Кондюбов, Геша Меньшиков, Александр Большаков, Александр Демич, Владимир Севостьянихин, Александр Устинов, Константин Кайнов, Юрий Елагин, Артур Литвинов, Сергей Шкарбан, Александр Тютрюмов, Самвел Мужикян, Станислав Осколков, Наталья Корольская, Анна Фомина, Игорь Алимджанов, Анита Бумагина, Эрик Кения, Ирина Коваленко, Олег Панин-Описание: Простой таксист Павел, у которого после десяти лет совместной жизни с женой начались семейные проблемы, волею случая, встревает в бандитские "разборки". В багажнике его машины оказывается небольшой портфель, набитый бриллиантами. Ему приходится спасать свою жизнь и жизнь дочки, которую похитили бандиты банды Шампура после того, как бриллианты у Павла отобрали полицейские-оборотни. Силы казалось бы неравны, но на помощь Павлу приходят его друзья-таксисты. Развязка вроде как близка, но тут в борьбу вступает третья сила - настоящие владельцы портфеля с камнями...-
Качество видео: HDTV
Контейнер: TS
Стандарт разрешения: 1080i
Видео кодек: MPEG4 AVC
Аудио кодек: MP2
Видео: MPEG-4 AVC, ~ 7900 Кбит/с, 1920x1080, 25 кадр/с
Аудио: MP2, 2 ch, 192 Кбит/с
Cубтитры: отсутствуют
Общее
Идентификатор : 1 (0x1)
Полное имя : D:\плата по счетчику.2014.HDTV.1080i\Plata.po.schetchiku.(01.seriya).2014.HDTV.1080i.ts
Формат : MPEG-TS
Размер файла : 2,68 Гбайт
Продолжительность : 45 м.
Режим общего битрейта : Переменный
Общий поток : 8492 Кбит/сек
Видео
Идентификатор : 901 (0x385)
Идентификатор меню : 1029 (0x405)
Формат : AVC
Формат/Информация : Advanced Video Codec
Профиль формата : [email protected]
Параметр CABAC формата : Да
Параметр ReFrames формата : 2 кадра
Параметр GOP формата : M=3, N=30
Идентификатор кодека : 27
Продолжительность : 45 м.
Битрейт : 7878 Кбит/сек
Ширина : 1920 пикселей
Высота : 1080 пикселей
Соотношение сторон : 16:9
Частота кадров : 25,000 кадров/сек
Цветовое пространство : YUV
Субдискретизация насыщенности : 4:2:0
Битовая глубина : 8 бит
Тип развёртки : MBAFF
Бит/(Пиксели*Кадры) : 0.152
Размер потока : 2,48 Гбайт (93%)
Основные цвета : BT.709
Характеристики трансфера : BT.709
Коэффициенты матрицы : BT.709
Аудио
Идентификатор : 902 (0x386)
Идентификатор меню : 1029 (0x405)
Формат : MPEG Audio
Версия формата : Version 1
Профиль формата : Layer 2
Идентификатор кодека : 3
Продолжительность : 45 м.
Вид битрейта : Постоянный
Битрейт : 192 Кбит/сек
Каналы : 2 канала
Частота : 48,0 КГц
Метод сжатия : С потерями
Размер потока : 62,0 Мбайт (2%)
Язык : Russian
Download / Скачать

Хотите скачать бесплатно? Зарегистрируйтесь на сайте (ссылка на регистрацию). Pirat.ca - самый быстрый торрент трекер в рунете!

Как скачивать  ·   Что такое торрент  ·   Рейтинг и ограничения

TRECA ®

Флибустьер

1764

Пост 21-Мар-2015 20:44 (спустя 6 минут)

[Q] 

Просьба ко всем скачавшим, не уходить с раздачи, и помочь скачать другим.
Спасибо за понимание!

_________________
не надо кричать,лучше скажи - дешевле станет
[Профиль]  [ЛС] 

Пост 21-Мар-2015 20:47 (спустя 3 минуты)

Топик был перенесен из форума Отечественные сериалы (Трюм) в форум Отечественные сериалы
Андря
 

Region-89

Гроза морей

550

Пост 21-Мар-2015 21:14 (спустя 29 минут)

[Q] 

банально! опять разборки, братки, менты! избито уже! bz

_________________
[Профиль]  [ЛС] 

TRECA ®

Флибустьер

1764

Пост 21-Мар-2015 21:17 (спустя 3 минуты)

[Q] 

Region-89,
Согласен полностью, но куда ж без них то. Спрос рождает предложения. Народу нравится их и штампуют.

_________________
не надо кричать,лучше скажи - дешевле станет
[Профиль]  [ЛС] 

Region-89

Гроза морей

550

Пост 21-Мар-2015 21:20 (спустя 2 минуты)

[Q] 

TRECA,
ну да, зачем "придумывать велосипед!?"

_________________
[Профиль]  [ЛС] 
Показать сообщения:    
Ответить на тему

Текущее время: Сегодня 12:14

Часовой пояс: GMT + 4



Вы не можете начинать темы
Вы не можете отвечать на сообщения
Вы не можете редактировать свои сообщения
Вы не можете удалять свои сообщения
Вы не можете голосовать в опросах
Вы не можете прикреплять файлы к сообщениям
Вы не можете скачивать файлы

▼ Вниз