ML
     
  Уважаемый Гость!
Вы можете поддержать проект и зарегистрироваться у наших партнеров - онлайн-стратегия MyLands. При регистрации в игре Вы получите код, который сможете активировать после регистрации на pirat.ca и получить 1000 дублонов.

Ваш код:
f612af22ea70acf5cbe90707ac5a076d215f8f7f
 
     

Ника / Сезон: 1 / Серии: 1-4 из 4 (Валентин Донсков) [2015 г., Авантюрная мелодрама, SATRip, 720x400]

Ответить на тему
 
Автор
Сообщение

Пост 22-Мар-2015 18:22

[Q] 

TRECA

Флибустьер

-Ника-- Производство: Россия / ТВЦ "Централ Партнершип"
Жанр: Авантюрная мелодрама
Год выпуска: 2015 г.
Продолжительность: 00:46:00
Российская премьера: 22 марта 2015
Режиссер: Валентин Донсков-В ролях: Анна Миклош, Натали Старынкевич, Сергей Чирков, Валентина Шанаева-Описание: Нику подставляет муж, и она попадает в тюрьму. На зоне она знакомится с "медвежатницей" Дженни, и вскоре они становятся подругами. Через два года, выйдя из тюрьмы, Дженни решает помочь Нике вернуть дом и наказать мужа. Вскоре к девушкам присоединяется брат Дженни – аферист Ден. Так трое молодых людей становятся современными Робин Гудами и спасают умирающую девочку, наказывают врача-взяточника, находят управу на бизнесмена-бандита, защищают обманутых стариков.-Качество видео: SATRip
Контейнер: AVI
Стандарт разрешения: 720x400
Видео кодек: XviD
Аудио кодек: MP3
Видео: 720x400 (1.80:1), 25 fps, XviD build 50 ~1800 kbps avg, 0.25 bit/pixel
Аудио: 48 kHz, MPEG Layer 3, 2 ch, ~128.00 kbps avg
Cубтитры: отсутствуют
Общее
Полное имя : D:\НИКА\Nika.01.SATRip..avi
Формат : AVI
Формат/Информация : Audio Video Interleave
Размер файла : 629 Мбайт
Продолжительность : 44 м.
Общий поток : 1968 Кбит/сек
Программа кодирования : VirtualDubMod 1.5.10.3 | www.virtualdub-fr.org || (build 2550/release)
Библиотека кодирования : VirtualDubMod build 2550/release
Видео
Идентификатор : 0
Формат : MPEG-4 Visual
Профиль формата : Advanced [email protected]
Параметр BVOP формата : 2
Параметр QPel формата : Нет
Параметр GMC формата : Без точки перехода
Параметр матрицы формата : Default (H.263)
Идентификатор кодека : XVID
Идентификатор кодека/Подсказка : XviD
Продолжительность : 44 м.
Битрейт : 1830 Кбит/сек
Ширина : 720 пикселей
Высота : 400 пикселей
Соотношение сторон : 16:9
Частота кадров : 25,000 кадров/сек
Цветовое пространство : YUV
Субдискретизация насыщенности : 4:2:0
Битовая глубина : 8 бит
Тип развёртки : Прогрессивная
Метод сжатия : С потерями
Бит/(Пиксели*Кадры) : 0.254
Размер потока : 585 Мбайт (93%)
Библиотека кодирования : XviD 1.2.1 (UTC 2008-12-04)
Аудио
Идентификатор : 1
Формат : MPEG Audio
Версия формата : Version 1
Профиль формата : Layer 3
Режим : Joint stereo
Расширение режима : MS Stereo
Идентификатор кодека : 55
Идентификатор кодека/Подсказка : MP3
Продолжительность : 44 м.
Вид битрейта : Постоянный
Битрейт : 128 Кбит/сек
Каналы : 2 канала
Частота : 48,0 КГц
Метод сжатия : С потерями
Размер потока : 40,9 Мбайт (7%)
Выравнивание : Соединение по промежуткам
Продолжительность промежутка : 40 мс. (1,00 видеокадр)
Время предзагрузки промежутка : 504 мс.
Библиотека кодирования : LAME3.99r
Настройки программы : -m j -V 4 -q 9 -lowpass 17 -b 128
Download / Скачать

Хотите скачать бесплатно? Зарегистрируйтесь на сайте (ссылка на регистрацию). Pirat.ca - самый быстрый торрент трекер в рунете!

Как скачивать  ·   Что такое торрент  ·   Рейтинг и ограничения

TRECA ®

Флибустьер

1765

Пост 22-Мар-2015 18:24 (спустя 1 минута)

[Q] 

доброго времени суток!
Скачал сам, дай скачать другим.....Поддержим раздачу!!!!!

_________________
не надо кричать,лучше скажи - дешевле станет
[Профиль]  [ЛС] 

Пост 22-Мар-2015 19:32 (спустя 1 час 8 минут)

Топик был перенесен из форума Отечественные сериалы (Трюм) в форум Отечественные сериалы
kugesan
 
Показать сообщения:    
Ответить на тему

Текущее время: Сегодня 00:23

Часовой пояс: GMT + 4



Вы не можете начинать темы
Вы не можете отвечать на сообщения
Вы не можете редактировать свои сообщения
Вы не можете удалять свои сообщения
Вы не можете голосовать в опросах
Вы не можете прикреплять файлы к сообщениям
Вы не можете скачивать файлы

▼ Вниз