ML
     
  Уважаемый Гость!
Вы можете поддержать проект и зарегистрироваться у наших партнеров - онлайн-стратегия MyLands. При регистрации в игре Вы получите код, который сможете активировать после регистрации на pirat.ca и получить 1000 дублонов.

Ваш код:
e6008d9811a0b6a1393c3dc51ecd7bc35637bc21
 
     

Фарца / Сезон: 1 / Серии: 1-8 из 8 (Егор Баранов) [2015 г., драма, HDTVRip] (пополняемая)

Ответить на тему
 
Автор
Сообщение

Пост 31-Мар-2015 01:03

[Q] 

Элез

Флибустьер

-Фарца-- Производство: Россия
Жанр: драма
Год выпуска: 2015 г.
Продолжительность: 8х00:51:00
Российская премьера: 30 марта 2015
Режиссер: Егор Баранов-В ролях: Александр Петров, Филипп Горенштейн, Максим Емельянов, Алексей Весёлкин, Зоя Бербер, Таисия Вилкова, Евгений Стычкин, Иева Андреевайте, Алексей Серебряков, Александр Яценко-Описание: События происходят с 1961 года по 1991 год. В центре истории — дружба четырех парней. В 1 сезоне им 20 лет, они дружат с детства и ради дружбы готовы на все. У всех свои мечты, но обстоятельства сложатся таким образом, что они будут вынуждены окунуться во все виды подпольной экономики начала 60х. И, что самое ужасное, — они успешны в этом деле, у них все получается. И чем лучше у них получается фарцовка, тем дальше герои от воплощения своих настоящих мечтаний-
Качество видео: HDTVRip
Контейнер: AVI
Видео кодек: XviD
Аудио кодек: AC3
Видео: MPEG-4 Visual at 1549 Кбит/сек : 720 x 400 at 25.000 fps Бит/Пиксели*Кадры : 0.215
Аудио: AC-3 at 192 Кбит/сек : 2 канала, 48,0 КГц
Cубтитры: отсутствуют
Общее
Полное имя : D:\Раздача\Farca.2015.XviD.HDTVRip\01.Farca.2015.XviD.HDTVRip.avi
Формат : AVI
Формат/Информация : Audio Video Interleave
Размер файла : 650 Мбайт
Продолжительность : 51 м.
Общий поток : 1751 Кбит/сек
Программа кодирования : VirtualDubMod 1.5.10.3 | www.virtualdub-fr.org || (build 2550/release)
Библиотека кодирования : VirtualDubMod build 2550/release
Видео
Идентификатор : 0
Формат : MPEG-4 Visual
Профиль формата : Advanced [email protected]
Параметр BVOP формата : 1
Параметр QPel формата : Нет
Параметр GMC формата : Без точки перехода
Параметр матрицы формата : Default (H.263)
Идентификатор кодека : XVID
Идентификатор кодека/Подсказка : XviD
Продолжительность : 51 м.
Битрейт : 1549 Кбит/сек
Ширина : 720 пикселей
Высота : 400 пикселей
Соотношение сторон : 16:9
Частота кадров : 25,000 кадров/сек
Цветовое пространство : YUV
Субдискретизация насыщенности : 4:2:0
Битовая глубина : 8 бит
Тип развёртки : Прогрессивная
Метод сжатия : С потерями
Бит/(Пиксели*Кадры) : 0.215
Размер потока : 575 Мбайт (88%)
Библиотека кодирования : XviD 73
Аудио
Идентификатор : 1
Формат : AC-3
Формат/Информация : Audio Coding 3
Расширение режима : CM (complete main)
Параметр Endianness формата : Big
Идентификатор кодека : 2000
Продолжительность : 51 м.
Вид битрейта : Постоянный
Битрейт : 192 Кбит/сек
Каналы : 2 канала
Расположение каналов : Front: L R
Частота : 48,0 КГц
Битовая глубина : 16 бит
Метод сжатия : С потерями
Размер потока : 71,2 Мбайт (11%)
Выравнивание : Разделение по промежуткам
Продолжительность промежутка : 40 мс. (1,00 видеокадр)
Время предзагрузки промежутка : 500 мс.
Download / Скачать

Хотите скачать бесплатно? Зарегистрируйтесь на сайте (ссылка на регистрацию). Pirat.ca - самый быстрый торрент трекер в рунете!

Как скачивать  ·   Что такое торрент  ·   Рейтинг и ограничения



Последний раз редактировалось: Элез (2015-04-06 03:25), всего редактировалось 6 раз(а)

Андря

8410

Пост 31-Мар-2015 01:06 (спустя 2 минуты)

[Q] 

пополнятья будет? укажите.

_________________
Като Тешекика
[Профиль]  [ЛС] 

Элез ®

Флибустьер

15330

Пост 31-Мар-2015 01:07 (спустя 48 секунд)

[Q] 

Андря, ага будим раз взялись

_________________

[Профиль]  [ЛС] 

Пост 31-Мар-2015 01:08 (спустя 1 минута)

Топик был перенесен из форума Отечественные сериалы (Трюм) в форум Сериалы в эфире
Андря
 

Элез ®

Флибустьер

15330

Пост 31-Мар-2015 23:51 (спустя 22 часа)

[Q] 

Добавлены 3-4 серии

_________________

[Профиль]  [ЛС] 

prokazn1k86

Лоцман

Пост 01-Апр-2015 20:25 (спустя 20 часов)

[Q] 

Спасибо.Сериал понравился.Буду поддерживать раздачу! Автору респект!!!
[Профиль]  [ЛС] 

[email protected].ru

Корсар

Пост 01-Апр-2015 22:23 (спустя 1 час 58 минут)

[Q] 

такая шляпа галимая, как такой отцтой можно снимать
[Профиль]  [ЛС] 

Элез ®

Флибустьер

15330

Пост 01-Апр-2015 23:44 (спустя 1 час 20 минут)

[Q] 

Добавлены 5-6 серии

_________________

[Профиль]  [ЛС] 

grosboy

Флибустьер

Пост 02-Апр-2015 13:23 (спустя 13 часов)

[Q] 

Интересный сериал. Постою на раздаче.

_________________
Щастье есть - его не может не быть...
[Профиль]  [ЛС] 

Элез ®

Флибустьер

15330

Пост 03-Апр-2015 19:48 (спустя 1 день 6 часов)

[Q] 

Последние 2 серии в HD будут в воскресенье.

_________________

[Профиль]  [ЛС] 

Элез ®

Флибустьер

15330

Пост 06-Апр-2015 03:26 (спустя 2 дня 7 часов)

[Q] 

Добавлены 7-8 серии

_________________

[Профиль]  [ЛС] 

Пост 06-Апр-2015 16:33 (спустя 13 часов)

Топик был перенесен из форума Сериалы в эфире в форум Отечественные сериалы
kugesan
 

Victorsalata

Корсар

Пост 17-Авг-2015 10:53 (спустя 4 месяца 11 дней)

[Q] 

Нормальный сериал. Так и было. Можно смотреть.
[Профиль]  [ЛС] 

platon18

Гроза морей

Пост 11-Окт-2015 13:25 (спустя 1 месяц 25 дней)

[Q] 

давно искал, спасибо
[Профиль]  [ЛС] 
Показать сообщения:    
Ответить на тему

Текущее время: Сегодня 02:00

Часовой пояс: GMT + 4



Вы не можете начинать темы
Вы не можете отвечать на сообщения
Вы не можете редактировать свои сообщения
Вы не можете удалять свои сообщения
Вы не можете голосовать в опросах
Вы не можете прикреплять файлы к сообщениям
Вы не можете скачивать файлы

▼ Вниз