ML
     
  Уважаемый Гость!
Вы можете поддержать проект и зарегистрироваться у наших партнеров - онлайн-стратегия MyLands. При регистрации в игре Вы получите код, который сможете активировать после регистрации на pirat.ca и получить 1000 дублонов.

Ваш код:
f612af22ea70acf5cbe90707ac5a076d215f8f7f
 
     

Третий поединок / Сезон: 1 / Серии: 1-4 серии из 4 (Вячеслав Воробьев, Вадим Арапов) [2015 г., боевик, драма, SATRip]

Ответить на тему
 
Автор
Сообщение

Пост 05-Апр-2015 11:20

[Q] 

aiden57

Гроза морей

-Третий поединок-«Хочешь драться – дерись на ринге!»- Производство: Россия
Жанр: боевик, драма
Год выпуска: 2015 г.
Продолжительность: 4 x ~ 00:42:00
Российская премьера: 22 февраля 2015
Режиссер: Вячеслав Воробьев, Вадим Арапов-В ролях: Константин Адаев, Игорь Жижикин, Александр Аноприков, Алексей Бураков, Виктор Долгий, Никита Абдулов-Описание: Владелец бойцовского клуба «Витязи» Юрий принимает вызов самого модного клуба города «Файтерс» организовать поединок сильнейших бойцов. Цель задумки — вовлечение в залы молодых людей, подверженных влиянию улицы. Зная мощь и жесткость бойца от «Файтерса» по кличке Фугас, спортсмены «Витязей» один за другим отказываются от поединка, но отменить встречу уже нельзя. В последний момент Юрий решает выставить на бой Пашу «Профессора» — аспиранта, который пишет диссертацию по Гражданской войне и «болен» идеями русского офицерства. По иронии судьбы именно в этот день Паша приходит сказать своему тренеру об уходе из клуба — накануне состоялся разговор парня с отцом: его отправляют на стажировку в Москву, вот-вот начнется его блестящая научная карьера. Но боец не может подвести тренера — он соглашается выйти на поединок с заведомо более сильным соперником.-
Качество видео: SATRip
Контейнер: AVI
Видео кодек: XviD
Аудио кодек: AC3
Видео: 720x400 (1.80:1), 25 fps, XviD MPEG-4 ~1508 kbps avg, 0.209 bit/pixel
Аудио: 48 kHz, АС3, 2 ch, Front: L R ~192.00 kbps avg
Cубтитры: отсутствуют
Общее
Полное имя : C:\Users\Admin\Третий Поединок (SATRip) 2015\01.Tretij.poedinok.2015_(SATRip).avi
Формат : AVI
Формат/Информация : Audio Video Interleave
Размер файла : 500 Мбайт
Продолжительность : 40 м.
Общий поток : 1710 Кбит/сек
Программа кодирования : VirtualDubModRus 1.5.10.2 (build 2542/release)
Библиотека кодирования : VirtualDubMod build 2542/release
Видео
Идентификатор : 0
Формат : MPEG-4 Visual
Профиль формата : Advanced [email protected]
Параметр BVOP формата : 1
Параметр QPel формата : Нет
Параметр GMC формата : Без точки перехода
Параметр матрицы формата : Выборочная
Идентификатор кодека : XVID
Идентификатор кодека/Подсказка : XviD
Продолжительность : 40 м.
Битрейт : 1508 Кбит/сек
Ширина : 720 пикселей
Высота : 400 пикселей
Соотношение сторон : 16:9
Частота кадров : 25,000 кадров/сек
Цветовое пространство : YUV
Субдискретизация насыщенности : 4:2:0
Битовая глубина : 8 бит
Тип развёртки : Прогрессивная
Метод сжатия : С потерями
Бит/(Пиксели*Кадры) : 0.209
Размер потока : 441 Мбайт (88%)
Библиотека кодирования : XviD 73
Аудио
Идентификатор : 1
Формат : AC-3
Формат/Информация : Audio Coding 3
Расширение режима : CM (complete main)
Параметр Endianness формата : Big
Идентификатор кодека : 2000
Продолжительность : 40 м.
Вид битрейта : Постоянный
Битрейт : 192 Кбит/сек
Каналы : 2 канала
Расположение каналов : Front: L R
Частота : 48,0 КГц
Битовая глубина : 16 бит
Метод сжатия : С потерями
Размер потока : 56,2 Мбайт (11%)
Выравнивание : Разделение по промежуткам
Продолжительность промежутка : 40 мс. (1,00 видеокадр)
Время предзагрузки промежутка : 500 мс.
Download / Скачать

Хотите скачать бесплатно? Зарегистрируйтесь на сайте (ссылка на регистрацию). Pirat.ca - самый быстрый торрент трекер в рунете!

Как скачивать  ·   Что такое торрент  ·   Рейтинг и ограничения



Последний раз редактировалось: aiden57 (2015-04-05 23:14), всего редактировалось 1 раз

Region-89

Гроза морей

550

Пост 05-Апр-2015 20:34 (спустя 9 часов)

[Q] 

шлак?! нет!? em

_________________
[Профиль]  [ЛС] 

Пост 05-Апр-2015 23:27 (спустя 2 часа 53 минуты)

Топик был перенесен из форума Отечественные сериалы (Трюм) в форум Отечественные сериалы
kugesan
 
Показать сообщения:    
Ответить на тему

Текущее время: Сегодня 00:25

Часовой пояс: GMT + 4



Вы не можете начинать темы
Вы не можете отвечать на сообщения
Вы не можете редактировать свои сообщения
Вы не можете удалять свои сообщения
Вы не можете голосовать в опросах
Вы не можете прикреплять файлы к сообщениям
Вы не можете скачивать файлы

▼ Вниз