ML
     
  Уважаемый Гость!
Вы можете поддержать проект и зарегистрироваться у наших партнеров - онлайн-стратегия MyLands. При регистрации в игре Вы получите код, который сможете активировать после регистрации на pirat.ca и получить 1000 дублонов.

Ваш код:
34514219cfad5497a1822ecc1269bea77988f9aa
 
     

Спасайся, брат / Сезон: 1 / Серии: 1-4 из 4 (Антон Сиверс) [2015 г., боевик, SATRip]

Ответить на тему
 
Автор
Сообщение

Пост 10-Апр-2015 18:08

[Q] 

TRECA

Флибустьер

-Спасайся, брат-- Производство: Россия / "Триикс Медиа"
Жанр: боевик
Год выпуска: 2015 г.
Продолжительность: 4х00:42:00
Российская премьера: 10 апреля 2015
Режиссер: Антон Сиверс-В ролях: Александр Лыков, Алексей Шевченков, Роман Павлушев, Марина Доможирова, Геннадий Скоморохов, Валерий Немешаев, Кирилл Балобан, Александр Рязанцев, Владислав Комаров, Игорь Лепихин, Павел Поляков-Описание: Из монастыря в нескольких сотнях километров от Москвы бежит монах Михаил, который крадет всю монастырскую кассу. На его поиски отправляют Арсения как самого благочестивого из всех послушников. Михаил, как полагает настоятель, бежал в Москву. Сам Арсений с 6 лет (а сейчас ему 25), как остался сиротой, живет в монастыре и дальше монастырских окрестностей никогда не бывал, поэтому для него эта поездка – серьезное испытание. Сам Арсений добр, но совершенно не приспособлен к жизни за пределами монастыря – он боится окружающего мира. В это время из расположенной неподалеку от монастыря зоны бежит Егор, ровесник Арсения, отчаянно злой, жесткий человек, осужденный за контрабанду алкоголя.-
Качество видео: SATRip
Контейнер: AVI
Стандарт разрешения: 720x400
Видео кодек: XviD
Аудио кодек: MP3
Видео: 720x400 (1.61:1), 25 fps, XviD build 50 ~1799 kbps avg, 0.22 bit/pixel
Аудио: 48 kHz, MPEG Layer 3, 2 ch, ~128.00 kbps avg
Cубтитры: отсутствуют
Общее
Полное имя : D:\Спасайся брат.SATRip\Spasajsja.brat.03.SATRip..avi
Формат : AVI
Формат/Информация : Audio Video Interleave
Размер файла : 583 Мбайт
Продолжительность : 42 м.
Общий поток : 1938 Кбит/сек
Программа кодирования : VirtualDubMod 1.5.10.3 | www.virtualdub-fr.org || (build 2550/release)
Библиотека кодирования : VirtualDubMod build 2550/release
Видео
Идентификатор : 0
Формат : MPEG-4 Visual
Профиль формата : Advanced [email protected]
Параметр BVOP формата : 2
Параметр QPel формата : Нет
Параметр GфMC формата : Без точки перехода
Параметр матрицы формата : Default (H.263)
Идентификатор кодека : XVID
Идентификатор кодека/Подсказка : XviD
Продолжительность : 42 м.
Битрейт : 1800 Кбит/сек
Ширина : 720 пикселей
Высота : 400 пикселей
Соотношение сторон : 16:10
Частота кадров : 25,000 кадров/сек
Цветовое пространство : YUV
Субдискретизация насыщенности : 4:2:0
Битовая глубина : 8 бит
Тип развёртки : Прогрессивная
Метод сжатия : С потерями
Бит/(Пиксели*Кадры) : 0.223
Размер потока : 542 Мбайт (93%)
Библиотека кодирования : XviD 1.2.1 (UTC 2008-12-04)
Аудио
Идентификатор : 1
Формат : MPEG Audio
Версия формата : Version 1
Профиль формата : Layer 3
Режим : Joint stereo
Идентификатор кодека : 55
Идентификатор кодека/Подсказка : MP3
Продолжительность : 42 м.
Вид битрейта : Постоянный
Битрейт : 128 Кбит/сек
Каналы : 2 канала
Частота : 48,0 КГц
Метод сжатия : С потерями
Размер потока : 38,5 Мбайт (7%)
Выравнивание : Соединение по промежуткам
Продолжительность промежутка : 40 мс. (1,00 видеокадр)
Время предзагрузки промежутка : 504 мс.
Библиотека кодирования : LAME3.99r
Настройки программы : -m j -V 4 -q 9 -lowpass 17 -b 128
Download / Скачать

Хотите скачать бесплатно? Зарегистрируйтесь на сайте (ссылка на регистрацию). Pirat.ca - самый быстрый торрент трекер в рунете!

Как скачивать  ·   Что такое торрент  ·   Рейтинг и ограничения

TRECA ®

Флибустьер

1763

Пост 10-Апр-2015 18:09 (спустя 1 минута)

[Q] 

Всем приятного просмотра!

_________________
не надо кричать,лучше скажи - дешевле станет
[Профиль]  [ЛС] 

ss80

Флибустьер

36

Пост 10-Апр-2015 20:39 (спустя 2 часа 29 минут)

[Q] 

Спасибо!!!
[Профиль]  [ЛС] 

Пост 11-Апр-2015 10:15 (спустя 13 часов)

Топик был перенесен из форума Отечественные сериалы (Трюм) в форум Отечественные сериалы
kugesan
 

Алексей163

Штурман

Пост 13-Апр-2015 10:38 (спустя 2 дня 13 часов)

[Q] 

какой то идиотский замут, зачем отправлять человека, не имеющего ни опыта жизни вне монастыря не, тем более опыта ведения розыска, в такое путешествие??? а в полицию обратиться не проще???
[Профиль]  [ЛС] 
Показать сообщения:    
Ответить на тему

Текущее время: Сегодня 07:49

Часовой пояс: GMT + 4



Вы не можете начинать темы
Вы не можете отвечать на сообщения
Вы не можете редактировать свои сообщения
Вы не можете удалять свои сообщения
Вы не можете голосовать в опросах
Вы не можете прикреплять файлы к сообщениям
Вы не можете скачивать файлы

▼ Вниз