ML
     
  Уважаемый Гость!
Вы можете поддержать проект и зарегистрироваться у наших партнеров - онлайн-стратегия MyLands. При регистрации в игре Вы получите код, который сможете активировать после регистрации на pirat.ca и получить 1000 дублонов.

Ваш код:
e6008d9811a0b6a1393c3dc51ecd7bc35637bc21
 
     

Институт благородный девиц / серии с 1 по 96 (Юрий Попович, Сергей Данелян, Леонид Белозорович) [2011., история, мелодрама, SATRip]

Ответить на тему
 
Автор
Сообщение

Пост 27-Апр-2015 01:07

[Q] 

Сумрак

-Институт благородный девиц (серии с 1 по 96)-- Производство: ТТО Группа компаний «Новелла»
Жанр: история, мелодрама
Год выпуска: 2011 г.
Продолжительность: серия - 45 минут
Режиссер: Юрий Попович, Сергей Данелян, Леонид Белозорович-В ролях:Алиса Сапегина, Александр Арсентьев, Иван Колесников, Ксения Хаирова, Алена Созинова, Юлия Гусева (II), Екатерина Астахова, Полина Беленькая, Евгения Водзинская, Людмила Кожевникова, Антон Феоктистов, Семен Спесивцев, Иван Рыжиков, Ирина Линдт, Василий Шемякинский, Ирэна Морозова, Анатолий Котенёв, Марина Дианова, Алексей Фаддеев, Юлия Кокрятская, Софья Терехова-Багратиони, Дарья Одинокина, Полина Нечитайло, Залим Мирзоев, Ходжадурды Нарлиев, Гурам Баблишвили, Андрей Бархударов, Алексей Франдетти, Магомедарип Сурхатилов, Андрей Градов, Елена Дубровская, Людмила Свитова, Александр Бобровский, Екатерина Новотоцкая-Власова, Дмитрий Толкачев, Артур Иванов, Александр Корженков, Александр Нехороших, Анатолий Завьялов, Ксения Виват, Филипп Марцевич, Рашид Айтуганов, Владимир Долматовский, Валерий Жуков, Дарья Горшкалева, Анна Исайкина, Ирина Девляшова-Описание: 1877 год. В институте благородных девиц в Москве, в небольшой спальне-дортуаре на втором этаже живут студентки выпускного класса: Софья Горчакова, Тата Ильинская, Ася Черневская, Варя Кулакова и турчанка Мириам. В институте благородных девиц свои порядки. Каждый день ранний подъем, занятия, подготовка к балам и к приезду важных гостей. Нужно угодить классной даме и не попасться, если нарушил правила. Несмотря на то, что иногда девочки позволяют себе дурачества и шалости – вечером в спальне рассказывают друг другу небылицы, гадают, подшучивают друг над другом - они уже не дети. Каждая из них – самостоятельная личность, со своими собственными представлениями о мире, о жизни и о своем будущем. Девочки не раз проверят дружбу на прочность, подставят друг другу и плечо, и подножку. Несмотря на все размолвки и ссоры, зависть и соперничество, спустя время они поймут, что их институтская дружба - самое светлое и крепкое чувство, которое подарила им жизнь. Пока институтки в зале для танцев разучивают полонез, за окнами института, в миру, кипит жизнь и свершается история. Россия ведет войну с Турцией, в воздухе разлиты демократические настроения, зарождается революционные кружки и различные подпольные молодежные организации. Все это меняет привычный уклад жизни или хотя бы подталкивает к изменениям. Эти исторические обстоятельства рождают в сердцах людей много сомнений и вопросов: что будет дальше? Но в этом и заключена прелесть жизни, что она изменчива и не стоит на месте.-
Качество видео: SATRip
Контейнер: AVI
Видео кодек: XviD
Аудио кодек: MP3
Видео: XviD, 704x416 (1.692), 25.000 fps, 1 323 Kbps (0.181 bit/pixel)
Аудио: MPEG1 Layer 3, 48.0 KHz, 2 ch, 128 Kbps, CBR
Cубтитры: отсутствуют
Общее
Формат : AVI
Формат/Информация : Audio Video Interleave
Размер файла : 453 Мбайт
Продолжительность : 43 м.
Общий поток : 1461 Кбит/сек
Программа кодирования : VirtualDubMod 1.5.10.2 (build 2540/release)
Библиотека кодирования : VirtualDubMod build 2540/release
Видео
Идентификатор : 0
Формат : MPEG-4 Visual
Профиль формата : Advanced [email protected]
Параметр BVOP формата : 2
Параметр QPel формата : Нет
Параметр GMC формата : Без точки перехода
Параметр матрицы формата : Default (MPEG)
Режим смешивания : Сжатый битовый поток
Идентификатор кодека : XVID
Идентификатор кодека/Подсказка : XviD
Продолжительность : 43 м.
Битрейт : 1323 Кбит/сек
Ширина : 704 пикселя
Высота : 416 пикселей
Соотношение сторон : 1,692
Частота кадров : 25,000 кадров/сек
Цветовое пространство : YUV
Субдискретизация насыщенности : 4:2:0
Битовая глубина : 8 бит
Тип развёртки : Прогрессивная
Метод сжатия : С потерями
Бит/(Пиксели*Кадры) : 0.181
Размер потока : 410 Мбайт (91%)
Библиотека кодирования : XviD 1.2.1 (UTC 2008-12-04)
Аудио
Идентификатор : 1
Формат : MPEG Audio
Версия формата : Version 1
Профиль формата : Layer 3
Режим : Joint stereo
Идентификатор кодека : 55
Идентификатор кодека/Подсказка : MP3
Продолжительность : 43 м.
Вид битрейта : Постоянный
Битрейт : 128 Кбит/сек
Каналы : 2 канала
Частота : 48,0 КГц
Метод сжатия : С потерями
Размер потока : 39,7 Мбайт (9%)
Выравнивание : Соединение по промежуткам
Продолжительность промежутка : 40 мс. (1,00 видеокадр)
Время предзагрузки промежутка : 504 мс.
Download / Скачать

Хотите скачать бесплатно? Зарегистрируйтесь на сайте (ссылка на регистрацию). Pirat.ca - самый быстрый торрент трекер в рунете!

Как скачивать  ·   Что такое торрент  ·   Рейтинг и ограничения



Последний раз редактировалось: Сумрак (2015-04-27 02:41), всего редактировалось 7 раз(а)

Сумрак ®

1660

Пост 27-Апр-2015 01:13 (спустя 6 минут)

[Q] 

просьба после начала раздачи .. раздачу перехватить !!! долго не смогу держать на раздаче диски все забиты и все тормозит

_________________
[Профиль]  [ЛС] 

Сумрак ®

1660

Пост 27-Апр-2015 16:39 (спустя 15 часов)

[Q] 

готовлю вторую часть всего будет 260 серий

_________________
[Профиль]  [ЛС] 

MrMois

Штурман

16

Пост 28-Апр-2015 22:27 (спустя 1 день 5 часов)

[Q] 

672224просьба после начала раздачи .. раздачу перехватить !!! долго не смогу держать на раздаче диски все забиты и все тормозит
Я берусь за работу! Лови бочку
[Профиль]  [ЛС] 

Сумрак ®

1660

Пост 30-Апр-2015 18:19 (спустя 1 день 19 часов)

[Q] 

кто сейчас личер сидировать будешь ? я подожду когда скачаешь и отхожу буду вторую часть заливать сюда

_________________
[Профиль]  [ЛС] 
Показать сообщения:    
Ответить на тему

Текущее время: Сегодня 02:03

Часовой пояс: GMT + 4



Вы не можете начинать темы
Вы не можете отвечать на сообщения
Вы не можете редактировать свои сообщения
Вы не можете удалять свои сообщения
Вы не можете голосовать в опросах
Вы не можете прикреплять файлы к сообщениям
Вы не можете скачивать файлы

▼ Вниз