ML
     
  Уважаемый Гость!
Вы можете поддержать проект и зарегистрироваться у наших партнеров - онлайн-стратегия MyLands. При регистрации в игре Вы получите код, который сможете активировать после регистрации на pirat.ca и получить 1000 дублонов.

Ваш код:
ca44e9295b9b8527ba1c339c20494f70782efea6
 
     

Дружина / Сезон: 1 / сезон 1 / серии 1-4 из 4 (Михаил Колпахчиев) [2015 г., боевик, история, SATRip]

Ответить на тему
 
Автор
Сообщение

Пост 06-Июн-2015 12:17

[Q] 

aiden57

Гроза морей

-Дружина-«Герои рядом»- Производство: Россия
Жанр: боевик, история
Год выпуска: 2015 г.
Продолжительность: 4 x ~ 00:45:00
Мировая премьера: 24 мая 2015
Режиссер: Михаил Колпахчиев-В ролях: Сергей Малюгов, Андрей Харабарин, Александр Колесник, Сергей Воробьёв, Александр Эрлих, Геннадий Казачков-Описание: 13-й век. В затерянное в дремучих лесах в небольшое селение прибывает малочисленная дружина — неразговорчивые хмурые воины, про которых говорят, что они понимают язык зверей и умеют заговаривать ветер. Дружине новгородского князя предстоит найти и доставить в Новогород мальчика по имени Александр, которому позже дадут прозвище Невский…-Качество видео: SATRip
Контейнер: AVI
Видео кодек: XviD
Аудио кодек: AC3
Видео: XviD, 720x400, 1516 kbps, 25.000 fps, Bits/Pixel: 0.21
Аудио: AC-3, 192 kbps, 48.0 kHz, 16 bits, 2 channels
Cубтитры: отсутствуют
General
Complete name : /home//Дружина.2015.SATRip/02.Дружина.2015.SATRip.avi
Format : AVI
Format/Info : Audio Video Interleave
File size : 551 MiB
Duration : 44mn 53s
Overall bit rate : 1 717 Kbps
Writing application : VirtualDubMod 1.5.10.3 | www.virtualdub-fr.org || (build 2550/release)
Writing library : VirtualDubMod build 2550/release
Video
ID : 0
Format : MPEG-4 Visual
Format profile : Advanced [email protected]
Format settings, BVOP : 1
Format settings, QPel : No
Format settings, GMC : No warppoints
Format settings, Matrix : Custom
Codec ID : XVID
Codec ID/Hint : XviD
Duration : 44mn 53s
Bit rate : 1 516 Kbps
Width : 720 pixels
Height : 400 pixels
Display aspect ratio : 16:9
Frame rate : 25.000 fps
Color space : YUV
Chroma subsampling : 4:2:0
Bit depth : 8 bits
Scan type : Progressive
Compression mode : Lossy
Bits/(Pixel*Frame) : 0.211
Stream size : 487 MiB (88%)
Writing library : XviD 73
Audio
ID : 1
Format : AC-3
Format/Info : Audio Coding 3
Mode extension : CM (complete main)
Format settings, Endianness : Big
Codec ID : 2000
Duration : 44mn 53s
Bit rate mode : Constant
Bit rate : 192 Kbps
Channel(s) : 2 channels
Channel positions : Front: L R
Sampling rate : 48.0 KHz
Bit depth : 16 bits
Compression mode : Lossy
Stream size : 61.7 MiB (11%)
Alignment : Split accross interleaves
Interleave, duration : 40 ms (1.00 video frame)
Interleave, preload duration : 500 ms
Download / Скачать

Хотите скачать бесплатно? Зарегистрируйтесь на сайте (ссылка на регистрацию). Pirat.ca - самый быстрый торрент трекер в рунете!

Как скачивать  ·   Что такое торрент  ·   Рейтинг и ограничения

bolobol

Корсар

110

Пост 06-Июн-2015 22:30 (спустя 10 часов)

[Q] 

Раздающему респект! посмотрим заценим...

_________________
[Профиль]  [ЛС] 

Владимир-капитан

Пост 07-Июн-2015 10:17 (спустя 11 часов)

[Q] 

Сериал понравился! Жду продолжения! Качают ВСЕ!!!
[Профиль]  [ЛС] 

XMax

Флибустьер

Пост 07-Июн-2015 11:44 (спустя 1 час 27 минут)

[Q] 

Раздающему спасибо!
[Профиль]  [ЛС] 

русика

Лоцман

Пост 10-Июн-2015 15:36 (спустя 3 дня)

[Q] 

сколько всего серий?
[Профиль]  [ЛС] 

Владимир-капитан

Пост 12-Июн-2015 19:35 (спустя 2 дня 3 часа)

[Q] 

Супер!
мне понравилось!
[Профиль]  [ЛС] 

flaering

Лоцман

Пост 21-Июн-2015 15:05 (спустя 8 дней)

[Q] 

будем поглядеть))
[Профиль]  [ЛС] 

tyulen29

Штурман

Пост 21-Июн-2015 19:03 (спустя 3 часа)

[Q] 

Отлично сделан,сцены боев и сюжет на высоте.Ждем новых серии. Супер!
[Профиль]  [ЛС] 

preacher82

Морской Волк

Пост 26-Июл-2015 16:37 (спустя 1 месяц 4 дня)

[Q] 

anime4 шикарный серриал про Русских мужиков!! anime99
[Профиль]  [ЛС] 

Victorsalata

Корсар

Пост 17-Авг-2015 10:26 (спустя 21 день)

[Q] 

Мне понравился сериал. Советую смотреть.
[Профиль]  [ЛС] 
Показать сообщения:    
Ответить на тему

Текущее время: Сегодня 16:17

Часовой пояс: GMT + 4



Вы не можете начинать темы
Вы не можете отвечать на сообщения
Вы не можете редактировать свои сообщения
Вы не можете удалять свои сообщения
Вы не можете голосовать в опросах
Вы не можете прикреплять файлы к сообщениям
Вы не можете скачивать файлы

▼ Вниз