ML
     
  Уважаемый Гость!
Вы можете поддержать проект и зарегистрироваться у наших партнеров - онлайн-стратегия MyLands. При регистрации в игре Вы получите код, который сможете активировать после регистрации на pirat.ca и получить 1000 дублонов.

Ваш код:
ba41f7961e0b4717aed6a401d955262223b8f6c4
 
     

Два Антона / Серии: 1-24 из 24 (Леонид Мазор) [2009-2010, комедия, мюзикл, IPTV]

Ответить на тему
 
Автор
Сообщение

Пост 27-Сен-2015 00:39

[Q] 

serg5

Матрос

Два Антона / Серии: 1-24 из 24 (Леонид Мазор) [2009-2010]
Год выпуска: 2009-2010
Производство: MG Media и Comedy Club Product
Жанр: Комедия, мюзикл
Продолжительность: 24 х ~ 00:25:00
Режиссёр: Леонид Мазор
В ролях: В ролях: Тимур Батрутдинов, Гавриил Гордеев, Сергей Белоголовцев, Наталья Ноздрина, Павел Акимкин, Роман Богданов, Ирина Жерякова, Ирина Вилкова, Ксения Непотребная, Полина Максимова, Павел Галич, Светлана Антропова, Сергей Гузеев
Описание: Антон приехал в Москву, снял квартиру и обнаружил, что в ней живет (извините за тавтологию) еще один Антон. У этих парней так много общего: они недавно в столице, у них есть гитары, оба любят заканчивать диалог фразой «это да», хотя кругом одно сплошное «нет». Работы – нет, денег – нет, из еды только пирожки с капустой. Надо срочно что-то делать, например… петь. Они поют всегда и везде: на свидании с девушкой, убегая от гопников, читая меню в суши-баре или занимаясь уборкой. Наверное, они скоро станут супер-звездами, но сначала надо наскрести денег на бульонный кубик. Супер-оригинальный формат ситкома, в котором смешалось всё: нестандартные житейские ситуации, феерические гэги, драматические переживания и музыка. Главные роли и все музыкальные номера исполняют резиденты Comedy Club Тимур Батрутдинов и Гавр.
 
Качество: IPTV
Формат: AVI
Видео кодек: MPEG-4,XVID
Аудио кодек: AAC
Видео: ~ 1800 Кбит/с, 768x432
Аудио: AAC, 2 ch, 48.0 KHz
Общее
Полное имя : D:\Мультимедиа и документы\Два Антона\01 серия.avi
Формат : AVI
Формат/Информация : Audio Video Interleave
Размер файла : 315 Мбайт
Продолжительность : 25 м.
Режим общего битрейта : Переменный
Общий поток : 1762 Кбит/сек
Программа кодирования : Lavf56.1.100
Видео
Идентификатор : 0
Формат : MPEG-4 Visual
Профиль формата : [email protected]
Параметр BVOP формата : Нет
Параметр QPel формата : Нет
Параметр GMC формата : Без точки перехода
Параметр матрицы формата : Default (H.263)
Идентификатор кодека : XVID
Идентификатор кодека/Подсказка : XviD
Продолжительность : 25 м.
Битрейт : 1620 Кбит/сек
Ширина : 768 пикселей
Высота : 432 пикселя
Соотношение сторон : 16:9
Частота кадров : 25,000 кадров/сек
Цветовое пространство : YUV
Субдискретизация насыщенности : 4:2:0
Битовая глубина : 8 бит
Тип развёртки : Прогрессивная
Метод сжатия : С потерями
Бит/(Пиксели*Кадры) : 0.195
Размер потока : 290 Мбайт (92%)
Библиотека кодирования : Lavc56.0.101
Аудио
Идентификатор : 1
Формат : AAC
Формат/Информация : Advanced Audio Codec
Версия формата : Version 2
Профиль формата : LC
Режим смешивания : ADTS
Идентификатор кодека : FF
Продолжительность : 25 м.
Вид битрейта : Переменный
Битрейт : 128 Кбит/сек
Каналы : 2 канала
Расположение каналов : Front: L R
Частота : 48,0 КГц
Метод сжатия : С потерями
Размер потока : 22,9 Мбайт (7%)
Выравнивание : Соединение по промежуткам
Продолжительность промежутка : 21 мс. (0,53 видеокадр)
Время предзагрузки промежутка : 128 мс.
Download / Скачать

Хотите скачать бесплатно? Зарегистрируйтесь на сайте (ссылка на регистрацию). Pirat.ca - самый быстрый торрент трекер в рунете!

Как скачивать  ·   Что такое торрент  ·   Рейтинг и ограничения



Последний раз редактировалось: serg5 (2015-09-27 12:39), всего редактировалось 1 раз

ramzzess1

Шкипер

Пост 27-Сен-2015 01:10 (спустя 31 минута)

[Q] 

качаю, спасибо, не знаю что это, но батруда рулит))) Лови бочку
[Профиль]  [ЛС] 
Показать сообщения:    
Ответить на тему

Текущее время: Сегодня 14:46

Часовой пояс: GMT + 4



Вы не можете начинать темы
Вы не можете отвечать на сообщения
Вы не можете редактировать свои сообщения
Вы не можете удалять свои сообщения
Вы не можете голосовать в опросах
Вы не можете прикреплять файлы к сообщениям
Вы не можете скачивать файлы

▼ Вниз